Tags
Language
Tags
April 2024
Su Mo Tu We Th Fr Sa
31 1 2 3 4 5 6
7 8 9 10 11 12 13
14 15 16 17 18 19 20
21 22 23 24 25 26 27
28 29 30 1 2 3 4

God Is An Astronaut - All Is Violent All Is Bright (Live) (2021) [Official Digital Download 24/96]

Posted By: delpotro
God Is An Astronaut - All Is Violent All Is Bright (Live) (2021) [Official Digital Download 24/96]

God Is An Astronaut - All Is Violent All Is Bright (Live) (2021)
FLAC (tracks) 24-bit/96 kHz | Front Cover | Time - 51:59 minutes | 1,04 GB
Post-Rock | Label: God Is An Astronaut, Official Digital Download

All songs written and produced by God Is An Astronaut (2005). Recorded at Windmill Lane Recording Studios in Dublin on Jan 23rd 2021.

Tracklist:
1. Fragile (Live) (05:06)
2. All is Violent, All is Bright (Live) (05:06)
3. Forever Lost (Live) (05:01)
4. Fireflies and Empty Skies (Live) (04:32)
5. A Deafening Distance (Live) (04:03)
6. Infinite Horizons (Live) (03:16)
7. Suicide by Star (Live) (04:49)
8. Remembrance Day (Live) (04:44)
9. Dust and Echoes (Live) (04:42)
10. When Everything Dies (Live) (05:03)

foobar2000 1.4.1 / Dynamic Range Meter 1.1.1
log date: 2021-09-09 15:34:25

––––––––––––––––––––––––––––––––––––––––
Analyzed: God Is An Astronaut / All Is Violent All Is Bright (Live)
––––––––––––––––––––––––––––––––––––––––

DR Peak RMS Duration Track
––––––––––––––––––––––––––––––––––––––––
DR10 -1.12 dB -15.81 dB 5:06 01-Fragile (Live)
DR9 -1.11 dB -13.80 dB 5:06 02-All Is Violent All Is Bright (Live)
DR10 -1.12 dB -15.03 dB 5:01 03-Forever Lost (Live)
DR9 -1.12 dB -12.61 dB 4:32 04-Fireflies and Empty Skies (Live)
DR9 -1.11 dB -13.51 dB 4:03 05-A Deafening Distance (Live)
DR10 -3.50 dB -18.24 dB 3:16 06-Infinite Horizons (Live)
DR9 -1.11 dB -14.99 dB 4:49 07-Suicide by Star (Live)
DR10 -1.11 dB -15.42 dB 4:44 08-Rememberance Day (Live)
DR9 -1.11 dB -14.75 dB 4:42 09-Dust and Echoes (Live)
DR10 -1.12 dB -15.16 dB 5:03 10-When Everything Dies (Live)
DR9 -1.11 dB -14.27 dB 5:39 11-Bonus - in Flux (Live)
––––––––––––––––––––––––––––––––––––––––

Number of tracks: 11
Official DR value: DR9

Samplerate: 96000 Hz
Channels: 2
Bits per sample: 24
Bitrate: 2882 kbps
Codec: FLAC
================================================================================


Thanks to the Original customer!