Tags
Language
Tags

Graeme James - Field Notes on an Endless Day (EP) (2021) [Official Digital Download]

Posted By: delpotro
Graeme James - Field Notes on an Endless Day (EP) (2021) [Official Digital Download]

Graeme James - Field Notes on an Endless Day (EP) (2021)
FLAC (tracks) 24-bit/44,1 kHz | Front Cover | Time - 23:40 minutes | 254 MB
Folk Rock, Singer-Songwriter | Label: Nettwerk Records, Official Digital Download

Rolling guitar plucks atop sonic waves of keys and sweeping violin strings usher in the folk-y croon of Graeme James in ‘The Wild’ as he longs for the comforts of the outdoors. James says of the new song, “Having been raised in Ng?motu / New Plymouth, with the wild sea on one side and the solitary peak of Mt Taranaki on the other, I was blessed with an abundance of places to explore and get lost in. ‘The Wild’ is a song born from a universal longing for this wilderness and solitude, and it explores the soul’s desire to feel small under the open sky, to feel lost amongst the grandeur of the mountains, and to commune with the transcendent in the quiet beauty of the wilderness.”

Tracklist:
01. The Tallest Tree
02. The Angel of St. George
03. Await the Tide
04. Close to You
05. The Wild
06. Field Notes on an Endless Day

foobar2000 1.4.1 / Dynamic Range Meter 1.1.1
log date: 2021-07-30 11:25:38

––––––––––––––––––––––––––––––––––––––––
Analyzed: Graeme James / Field Notes on an Endless Day
––––––––––––––––––––––––––––––––––––––––

DR Peak RMS Duration Track
––––––––––––––––––––––––––––––––––––––––
DR7 -1.00 dB -9.08 dB 3:38 01-The Tallest Tree
DR8 -1.00 dB -11.02 dB 3:43 02-The Angel of St. George
DR9 -1.00 dB -12.36 dB 3:23 03-Await the Tide
DR7 -1.00 dB -10.10 dB 4:25 04-Close to You
DR7 -1.00 dB -10.94 dB 4:54 05-The Wild
DR10 -1.00 dB -13.61 dB 3:38 06-Field Notes on an Endless Day
––––––––––––––––––––––––––––––––––––––––

Number of tracks: 6
Official DR value: DR8

Samplerate: 44100 Hz
Channels: 2
Bits per sample: 24
Bitrate: 1444 kbps
Codec: FLAC
================================================================================


Thanks to the Original customer!