Tags
Language
Tags

Grace Cummings - Storm Queen (2022) [Official Digital Download 24/48]

Posted By: delpotro
Grace Cummings - Storm Queen (2022) [Official Digital Download 24/48]

Grace Cummings - Storm Queen (2022)
FLAC (tracks) 24-bit/48 kHz | Front Cover | Time - 41:56 minutes | 462 MB
Indie Folk, Female Vocal | Label: ATO Records, Official Digital Download

Storm Queen by Grace Cummings Melbourne indie-folk artist Grace Cummings' sophomore album Storm Queen, is a body of work with it's own unruly climate, governed only by the singular force of her devastating vocals. Over the course of 11 feverishly composed folk songs, Cummings explores a vast and volatile emotional landscape, approaching each track with both exquisite control and unfettered abandon.

Tracklist:
1. Heaven (04:45)
2. Always New Days Always (02:56)
3. Dreams (02:29)
4. Up in Flames (05:24)
5. Freak (03:22)
6. Here is the Rose (02:45)
7. Raglan (03:18)
8. Two Little Birds (03:03)
9. This Day in May (04:03)
10. Storm Queen (04:53)
11. Fly a Kite (04:52)

foobar2000 1.4.1 / Dynamic Range Meter 1.1.1
log date: 2022-01-15 14:08:58

––––––––––––––––––––––––––––––––––––––––
Analyzed: Grace Cummings / Storm Queen
––––––––––––––––––––––––––––––––––––––––

DR Peak RMS Duration Track
––––––––––––––––––––––––––––––––––––––––
DR10 -1.01 dB -13.67 dB 4:46 01-Heaven
DR9 -1.03 dB -13.37 dB 2:56 02-Always New Days Always
DR10 -1.01 dB -13.76 dB 2:30 03-Dreams
DR11 -1.03 dB -14.76 dB 5:24 04-Up in Flames
DR8 -1.03 dB -12.70 dB 3:23 05-Freak
DR10 -1.02 dB -13.58 dB 2:45 06-Here is the Rose
DR9 -1.03 dB -13.13 dB 3:19 07-Raglan
DR12 -1.01 dB -16.19 dB 3:03 08-Two Little Birds
DR10 -1.03 dB -14.31 dB 4:04 09-This Day in May
DR9 -1.03 dB -13.01 dB 4:53 10-Storm Queen
DR10 -1.01 dB -13.76 dB 4:53 11-Fly a Kite
––––––––––––––––––––––––––––––––––––––––

Number of tracks: 11
Official DR value: DR10

Samplerate: 48000 Hz
Channels: 2
Bits per sample: 24
Bitrate: 1507 kbps
Codec: FLAC
================================================================================


Thanks to the Original customer!