Tags
Language
Tags

Greensky Bluegrass - Stress Dreams (2022) [Official Digital Download 24/96]

Posted By: delpotro
Greensky Bluegrass - Stress Dreams (2022) [Official Digital Download 24/96]

Greensky Bluegrass - Stress Dreams (2022)
FLAC (tracks) 24-bit/96 kHz | Front Cover | Time - 67:19 minutes | 1,36 GB
Folk, Bluegrass | Label: Big Blue Zoo Records, Official Digital Download

For two decades now, Greensky Bluegrass has been building an empire, brick by brick. Their eighth studio release, Stress Dreams was produced by Dominic Davis (Jack White) and Grammy winning engineer/producer Glenn Brown amidst the 2020 pandemic. It follows their 2019 release, All for Money, which landed on the Top 100 at the Billboard Albums Chart, Top 20 at Independent Albums and Current Country Albums, Top 10 at Americana/Folk Albums Top 5 at Heatseekers, and #1 at Bluegrass Albums. Greensky is widely known for their dazzling live performances and relentless touring schedule. As with traditional bluegrass, the band writes about their own contemporary day-to-day happenings, emotions, and experiences in the modern world. Their die-hard fans pack out venues across the country. They travel in droves and sell out multiple-night show runs at iconic venues like Red Rocks and The Ryman.

Tracklist:
1. Absence of Reason (04:17)
2. Monument (04:41)
3. Until I Sing (03:07)
4. Stress Dreams (08:01)
5. Give a Shit (04:56)
6. Streetlight (06:21)
7. Worry for You (04:33)
8. Get Sad (02:56)
9. Cut a Tooth (05:29)
10. New & Improved (05:47)
11. Screams (04:17)
12. Grow Together (07:00)
13. Reasons to Stay (05:49)

foobar2000 1.4.1 / Dynamic Range Meter 1.1.1
log date: 2022-01-20 19:30:03

––––––––––––––––––––––––––––––––––––––––
Analyzed: Greensky Bluegrass / Stress Dreams
––––––––––––––––––––––––––––––––––––––––

DR Peak RMS Duration Track
––––––––––––––––––––––––––––––––––––––––
DR9 -3.41 dB -13.67 dB 4:17 01-Absence of Reason
DR11 -2.14 dB -14.31 dB 4:42 02-Monument
DR10 -3.41 dB -14.78 dB 3:07 03-Until I Sing
DR9 -3.23 dB -14.29 dB 8:02 04-Stress Dreams
DR9 -3.92 dB -13.86 dB 4:56 05-Give a Shit
DR12 -1.79 dB -15.80 dB 6:21 06-Streetlight
DR10 -3.33 dB -14.42 dB 4:33 07-Worry for You
DR12 -2.35 dB -15.45 dB 2:57 08-Get Sad
DR8 -3.66 dB -13.15 dB 5:30 09-Cut a Tooth
DR12 -1.46 dB -15.44 dB 5:47 10-New & Improved
DR9 -3.42 dB -14.29 dB 4:18 11-Screams
DR9 -3.40 dB -13.42 dB 7:00 12-Grow Together
DR11 -2.27 dB -14.92 dB 5:49 13-Reasons to Stay
––––––––––––––––––––––––––––––––––––––––

Number of tracks: 13
Official DR value: DR10

Samplerate: 96000 Hz
Channels: 2
Bits per sample: 24
Bitrate: 2863 kbps
Codec: FLAC
================================================================================


Thanks to the Original customer!