Tags
Language
Tags

Half Waif - Mythopoetics (2021) [Official Digital Download 24/48]

Posted By: delpotro
Half Waif - Mythopoetics (2021) [Official Digital Download 24/48]

Half Waif - Mythopoetics (2021)
FLAC (tracks) 24-bit/48 kHz | Front Cover | Time - 36:51 minutes | 433 MB
Indie Pop, Art Pop, Female Vocal | Label: ANTI- Records, Official Digital Download

With her musical project Half Waif, Nandi Rose dives deep into the waters of artistic expression by layering evocative vocals and synths to create a powerful form of pop music. On Mythopoetics, Rose explores a full spectrum of sounds that sparkle with memorable hooks, otherworldly production and uplifting grooves. "This is the record I've been trying to make for 10 years," Rose says.

Previous albums The Caretaker (2020) and Lavender (2018) garnered acclaim for their compelling journeys through solitude, desire and the search for independence. Half Waif declares a new chapter on Mythopoetics, a collection of 12 new songs mythical stories that transcend time, each sung with a glorious contralto wrapped up in synths and electronic percussion, and her lyrical piano serving as the backbone. It is an essential reminder that we have the power to shape the stories we tell and the myths we make of our lives. This is music that you feel.

Tracklist:
1. Fabric (01:14)
2. Swimmer (03:08)
3. Take Away the Ache (03:29)
4. Fortress (03:24)
5. The Apartment (02:38)
6. Sourdough (02:59)
7. Party's Over (03:23)
8. Horse Racing (03:40)
9. Orange Blossoms (03:44)
10. Midnight Asks (03:31)
11. Sodium & Cigarettes (03:12)
12. Powder (02:24)

foobar2000 1.4.1 / Dynamic Range Meter 1.1.1
log date: 2021-07-08 22:14:37

––––––––––––––––––––––––––––––––––––––––
Analyzed: Half Waif / Mythopoetics
––––––––––––––––––––––––––––––––––––––––

DR Peak RMS Duration Track
––––––––––––––––––––––––––––––––––––––––
DR10 -0.50 dB -14.97 dB 1:15 01-Fabric
DR6 -0.10 dB -8.57 dB 3:09 02-Swimmer
DR7 -0.10 dB -10.60 dB 3:29 03-Take Away the Ache
DR7 -0.10 dB -10.93 dB 3:24 04-Fortress
DR6 -0.10 dB -9.31 dB 2:38 05-The Apartment
DR10 -0.10 dB -13.27 dB 2:59 06-Sourdough
DR7 -0.10 dB -9.98 dB 3:23 07-Party's Over
DR7 -0.10 dB -10.13 dB 3:40 08-Horse Racing
DR9 -0.10 dB -11.97 dB 3:45 09-Orange Blossoms
DR7 -0.10 dB -9.82 dB 3:32 10-Midnight Asks
DR8 -0.10 dB -10.98 dB 3:13 11-Sodium & Cigarettes
DR11 -0.56 dB -15.75 dB 2:24 12-Powder
––––––––––––––––––––––––––––––––––––––––

Number of tracks: 12
Official DR value: DR8

Samplerate: 48000 Hz
Channels: 2
Bits per sample: 24
Bitrate: 1412 kbps
Codec: FLAC
================================================================================


Thanks to the Original customer!