Tags
Language
Tags

The Hypnotunez - New Origins (2021) [Official Digital Download]

Posted By: El Misha
The Hypnotunez - New Origins (2021) [Official Digital Download]

The Hypnotunez - New Origins (2021)
FLAC (tracks) 24-bit/48 kHz | Time - 55:50 | 729 MB
Studio Master, Official Digital Download | Artwork: Front cover

The Hypnotunez is a musical group that has successfully combined swing, punk rock, ska with the influence of many other trends and successfully combines music from the 30s of the twentieth century to the present day. This is the only musical mixture of its kind, which found itself in the author's genre Swingcore and breathed new life into the direction of Jazz-Punk.
The band is active in many European countries. The guys shared one scene with Gogol Bordello, Rezurex, Shut Up! Twist Again !, by Oleh Skrypka and many other artists.



Tracklist:

01-Rakataka
02-Be My Hypno
03-Taste My Love (Swingcored)
04-On My Grave
05-Azathoth
06-Hey!
07-Sin Sin Sin
08-Flock of Ship (Atheist Main Theme)
09-Badass
10-Pain, Anger, Sadness and Wine
11-Callin'
12-Misteztvo is Dead!
13-I'm Your Hypno
14-Sullen Mood
15-Cinema Land (Bonus Track)

foobar2000 1.4 / Dynamic Range Meter 1.1.1
log date: 2021-04-11 08:26:44

––––––––––––––––––––––––––––––––––––––––
Analyzed: The Hypnotunez / New Origins
––––––––––––––––––––––––––––––––––––––––

DR Peak RMS Duration Track
––––––––––––––––––––––––––––––––––––––––
DR6 -0.11 dB -8.40 dB 3:17 01-Rakataka
DR6 -0.11 dB -7.56 dB 3:43 02-Be My Hypno
DR6 -0.19 dB -7.04 dB 3:31 03-Taste My Love (Swingcored)
DR6 -0.11 dB -7.76 dB 4:03 04-On My Grave
DR8 -0.11 dB -9.34 dB 3:40 05-Azathoth
DR6 -0.11 dB -7.44 dB 3:05 06-Hey!
DR7 -0.19 dB -8.51 dB 2:44 07-Sin Sin Sin
DR5 -0.11 dB -6.34 dB 2:53 08-Flock of Ship (Atheist Main Theme)
DR7 -0.11 dB -8.44 dB 5:14 09-Badass
DR5 -0.11 dB -6.67 dB 4:58 10-Pain, Anger, Sadness and Wine
DR7 -0.12 dB -9.59 dB 6:12 11-Callin'
DR6 -0.11 dB -7.75 dB 2:32 12-Misteztvo is Dead!
DR6 -0.11 dB -8.10 dB 3:07 13-I'm Your Hypno
DR7 -0.10 dB -8.61 dB 3:24 14-Sullen Mood
DR5 -0.10 dB -5.47 dB 3:35 15-Cinema Land (Bonus Track)
––––––––––––––––––––––––––––––––––––––––

Number of tracks: 15
Official DR value: DR6

Samplerate: 48000 Hz
Channels: 2
Bits per sample: 24
Bitrate: 1877 kbps
Codec: FLAC
================================================================================



Thanks to the Original customer!