Tags
Language
Tags

I.T.R - Bass Life Goes On (2021) [Official Digital Download 24/96]

Posted By: El Misha
I.T.R - Bass Life Goes On (2021) [Official Digital Download 24/96]

I.T.R - Bass Life Goes On (2021)
FLAC (tracks) 24-bit/96.0 kHz | Time - 39:56 | 828 MB
Studio Master, Official Digital Download | Artwork: Front cover

The unit unit "IT Revolution" by technical bassist IKUO and TAKA (Takayuki Murata), which triggered The Choppers Revolution with the participation of CASIOPEA3rd bassist Yoshihiro Naruse, is the first original of ITR (name omitted from this work) celebrating its 10th anniversary this year. The album work is finally here. This work will be released as the first artist from Mzes Records, which started the label as a leather cut. The guest musicians are the musicians who have supported I.T.R's activities so far, and the Dirty Loops super technical bassist "Henrik Linder", a technical and pop twin bass album with a newly written original song!



Tracklist:

01. Intoroduction (0:39)
02. Life is Groovin (3:47)
03. Bass Hunter (3:54)
04. White Summer (3:47)
05. Aim for the Moon (5:33)
06. We Love Henrik (feat. Henrik Linder) (6:40)
07. Interlude (1:37)
08. Popcorn Love (4:16)
09. Little Dragon〜Akasaka Blues〜 (6:03)
10. Red Latte (3:40)

foobar2000 1.4 / Dynamic Range Meter 1.1.1
log date: 2021-06-26 06:51:30

––––––––––––––––––––––––––––––––––––––––
Analyzed: I.T.R / Bass Life Goes On
––––––––––––––––––––––––––––––––––––––––

DR Peak RMS Duration Track
––––––––––––––––––––––––––––––––––––––––
DR6 -0.01 dB -12.06 dB 0:39 01-Intoroduction
DR5 -0.01 dB -6.24 dB 3:47 02-Life is Groovin
DR6 -0.01 dB -6.89 dB 3:54 03-Bass Hunter
DR4 -0.01 dB -6.17 dB 3:47 04-White Summer
DR5 -0.01 dB -7.36 dB 5:33 05-Aim for the Moon
DR5 -0.14 dB -6.61 dB 6:40 06-We Love Henrik (feat. Henrik Linder)
DR6 -0.01 dB -7.58 dB 1:37 07-Interlude
DR5 -0.01 dB -6.21 dB 4:16 08-Popcorn Love
DR6 -0.01 dB -7.38 dB 6:03 09-Little Dragon〜Akasaka Blues〜
DR5 -0.01 dB -6.96 dB 3:40 10-Red Latte
––––––––––––––––––––––––––––––––––––––––

Number of tracks: 10
Official DR value: DR5

Samplerate: 96000 Hz
Channels: 2
Bits per sample: 24
Bitrate: 3130 kbps
Codec: FLAC
================================================================================



Thanks to the Original customer!