Tags
Language
Tags

Jan Jelinek - The Raw and the Cooked (2021) [Official Digital Download]

Posted By: delpotro
Jan Jelinek - The Raw and the Cooked (2021) [Official Digital Download]

Jan Jelinek - The Raw and the Cooked (2021)
FLAC (tracks) 24-bit/44,1 kHz | Front Cover | Time - 39:03 minutes | 383 MB
Experimental Electronic, Ambient, Sound Art | Label: Faitiche, Official Digital Download

Jan Jelinek shifts into sound college mode for 'The Raw and the Cooked', alchemically processing the sound of material as it changes form. Lifted concrete music that's like Luc Ferrari or Bernard Parmigiani thrown into an anti-gravity chamber…

An album version of a radio piece Jelinek composed for German state broadcaster SWR2, 'The Raw and the Cooked' explores the nature of sound, using its flexibility to illustrate the mutability of raw material. Using recordings of artists Thomas & Renée Rapedius working with paper and metal objects and Peter Granser ritually preparing Japanese tea, Jelinek reflects the processes we take for granted - a solid's transformation into liquid and gas, for example - in his complex compositions. So careful, microscopically accurate recordings are changed quite literally as we listen, or twinned with synthetic sounds that mirror the real-world processes taking place.

It's not exactly a play, but Jelinek's radio experiment has a narrative that expresses the work of the artist, the craftsperson and the human seeking to feed oneself in the same breath. These rituals have been obscured over the centuries, and Jelinek focuses them and dissolves them into meditative tonal poems, with scraping and buzzing reminders of casual daily life juxtaposed with sci-fi wails and harsh edits.

'The Raw and the Cooked' is an absorbing use of GRM/musique concrète concepts and ideas that builds on the foundations of early innovators like Iannis Xenakis (there's the flavor of 'Concret PH' in 'The Raw and The Cooked (II)'), Pierre Henri and Luc Ferrari, shuttling it firmly into the 21st century.

Tracklist:
1. The Raw and The Cooked (Zwischen_Raum) (13:54)
2. The Raw and The Cooked (II) (06:26)
3. The Raw and The Cooked (V) (05:57)
4. The Raw and The Cooked (IV) (05:56)
5. The Raw and The Cooked (III) (06:50)

foobar2000 1.4.1 / Dynamic Range Meter 1.1.1
log date: 2021-09-16 18:40:48

––––––––––––––––––––––––––––––––––––––––
Analyzed: Jan Jelinek / The Raw and the Cooked
––––––––––––––––––––––––––––––––––––––––

DR Peak RMS Duration Track
––––––––––––––––––––––––––––––––––––––––
DR11 -0.50 dB -16.58 dB 13:54 01-The Raw and The Cooked (Zwischen/Raum)
DR17 -0.50 dB -21.67 dB 6:26 02-The Raw and The Cooked (II)
DR16 -1.51 dB -23.77 dB 5:57 03-The Raw and The Cooked (V)
DR8 -0.50 dB -13.48 dB 5:56 04-The Raw and The Cooked (IV)
DR14 -0.50 dB -17.89 dB 6:50 05-The Raw and The Cooked (III)
––––––––––––––––––––––––––––––––––––––––

Number of tracks: 5
Official DR value: DR13

Samplerate: 44100 Hz
Channels: 2
Bits per sample: 24
Bitrate: 1299 kbps
Codec: FLAC
================================================================================


Thanks to the Original customer!