Jason Isbell and the 400 Unit - Live at Moon Crush - Miramar Beach, FL - 4​/​30​/​21 (2021) [Official Digital Download 24/48]

Posted By: delpotro
Jason Isbell and the 400 Unit - Live at Moon Crush - Miramar Beach, FL - 4​/​30​/​21 (2021) [Official Digital Download 24/48]

Jason Isbell and the 400 Unit - Live at Moon Crush - Miramar Beach, FL - 4​/​30​/​21 (2021)
FLAC (tracks) 24-bit/48 kHz | Front Cover | Time - 89:01 minutes | 1 GB
Folk Rock, Americana | Label: Jason Isbell, Official Digital Download

Recorded live at Moon Crush in Miramar Beach, FL on 4/30/21.

Tracklist:
1. Intro (00:36)
2. Overseas (05:15)
3. Hope The High Road (03:05)
4. Only Children (04:58)
5. Be Afraid (03:40)
6. Running With Our Eyes Closed (04:04)
7. Dreamsicle (04:21)
8. Speed Trap Town (04:52)
9. It Gets Easier (04:23)
10. 24 Frames (03:17)
11. Something More Than Free (04:22)
12. Last Of My Kind (07:17)
13. Stockholm (03:13)
14. Flying Over Water (05:06)
15. Cover Me Up (06:41)
16. What've I Done To Help (08:17)
17. If We Were Vampires (05:09)
18. Super 8 (05:11)
19. Sway (05:12)

foobar2000 1.4.1 / Dynamic Range Meter 1.1.1
log date: 2021-05-29 18:52:59

––––––––––––––––––––––––––––––––––––––––
Analyzed: Jason Isbell / Live at Moon Crush - Miramar Beach, FL - 4/30/21
––––––––––––––––––––––––––––––––––––––––

DR Peak RMS Duration Track
––––––––––––––––––––––––––––––––––––––––
DR13 -3.37 dB -23.02 dB 0:36 01-Intro
DR13 0.00 dB -13.88 dB 5:15 02-Overseas
DR12 0.00 dB -14.22 dB 3:05 03-Hope The High Road
DR13 0.00 dB -15.36 dB 4:58 04-Only Children
DR11 0.00 dB -13.10 dB 3:40 05-Be Afraid
DR14 0.00 dB -15.77 dB 4:04 06-Running With Our Eyes Closed
DR14 -0.05 dB -17.31 dB 4:21 07-Dreamsicle
DR14 -1.39 dB -20.14 dB 4:52 08-Speed Trap Town
DR13 0.00 dB -14.65 dB 4:23 09-It Gets Easier
DR13 0.00 dB -14.65 dB 3:17 10-24 Frames
DR15 0.00 dB -17.64 dB 4:22 11-Something More Than Free
DR14 -0.83 dB -20.48 dB 7:17 12-Last Of My Kind
DR14 0.00 dB -15.87 dB 3:13 13-Stockholm
DR13 0.00 dB -16.47 dB 5:06 14-Flying Over Water
DR14 0.00 dB -20.07 dB 6:41 15-Cover Me Up
DR13 0.00 dB -15.60 dB 8:17 16-What've I Done To Help
DR13 -2.91 dB -19.91 dB 5:09 17-If We Were Vampires
DR13 0.00 dB -14.86 dB 5:11 18-Super 8
DR13 0.00 dB -14.53 dB 5:12 19-Sway
––––––––––––––––––––––––––––––––––––––––

Number of tracks: 19
Official DR value: DR13

Samplerate: 48000 Hz
Channels: 2
Bits per sample: 24
Bitrate: 1667 kbps
Codec: FLAC
================================================================================


Thanks to the Original customer!