Jenny Don't And The Spurs - Fire on the Ridge (2021) [Official Digital Download 24/96]

Posted By: El Misha
Jenny Don't And The Spurs - Fire on the Ridge (2021) [Official Digital Download 24/96]

Jenny Don't And The Spurs - Fire on the Ridge (2021)
FLAC (tracks) 24-bit/96 kHz | Time - 32:55 | 690 MB
Studio Master, Official Digital Download | Artwork: Front cover

The third full length release from Portland's Honky Tonk/Rockabilly/Punk anti-heroes, Jenny Don't And The Spurs, showcases the diverse array of musical styles from which the band draws it's influences. With 11 tracks clocking in at under 33 minutes, there isn't a wasted second as the band switches from blistering barn-burners ("Train Ticket", "Be The Only One") to rambling westerns ("Fire On The Ridge") to Patsy Cline style ballads ("Friday Night").



Tracklist:

1. Fire on the Ridge (2:57)
2. California Cowboy (3:36)
3. Be the Only One (2:44)
4. Restless Moon (2:17)
5. Foolish Lies (4:04)
6. Train Ticket (1:51)
7. Friday Night (4:04)
8. She's Not the One (2:19)
9. Johnny Vagabond (2:20)
10. Trouble on My Mind (1:28)
11. Queen of the Desert (5:19)

foobar2000 1.4 / Dynamic Range Meter 1.1.1
log date: 2021-06-11 07:38:53

––––––––––––––––––––––––––––––––––––––––
Analyzed: Jenny Don't and the Spurs / Fire on the Ridge
––––––––––––––––––––––––––––––––––––––––

DR Peak RMS Duration Track
––––––––––––––––––––––––––––––––––––––––
DR7 -0.42 dB -8.76 dB 2:57 01-Fire on the Ridge
DR8 -0.46 dB -9.63 dB 3:36 02-California Cowboy
DR7 -0.42 dB -8.25 dB 2:44 03-Be the Only One
DR8 -0.45 dB -8.85 dB 2:17 04-Restless Moon
DR7 -0.43 dB -9.00 dB 4:04 05-Foolish Lies
DR8 -0.44 dB -9.24 dB 1:51 06-Train Ticket
DR8 -0.46 dB -9.73 dB 4:04 07-Friday Night
DR7 -0.46 dB -9.34 dB 2:19 08-She's Not the One
DR7 -0.37 dB -8.29 dB 2:20 09-Johnny Vagabond
DR7 -0.46 dB -8.52 dB 1:28 10-Trouble on My Mind
DR8 -0.45 dB -8.90 dB 5:19 11-Queen of the Desert
––––––––––––––––––––––––––––––––––––––––

Number of tracks: 11
Official DR value: DR7

Samplerate: 96000 Hz
Channels: 2
Bits per sample: 24
Bitrate: 2889 kbps
Codec: FLAC
================================================================================



Thanks to the Original customer!