Tags
Language
Tags
July 2024
Su Mo Tu We Th Fr Sa
30 1 2 3 4 5 6
7 8 9 10 11 12 13
14 15 16 17 18 19 20
21 22 23 24 25 26 27
28 29 30 31 1 2 3

John Ritz, Gabe Evens & Greg Byrne - Cycles of Formation (2023) [Official Digital Download 24/48]

Posted By: delpotro
John Ritz, Gabe Evens & Greg Byrne - Cycles of Formation (2023) [Official Digital Download 24/48]

John Ritz, Gabe Evens & Greg Byrne - Cycles of Formation (2023)
FLAC (tracks) 24-bit/48 kHz | Front Cover | Time - 47:43 minutes | 527 MB
Avant-Garde Classical, Electroacoustic | Label: Ravello Records, Official Digital Download

Cycles of Formation from John Ritz presents varying degrees of prescribed musical material and open-form elements. Each piece explores the potential interactions between human performance and interactive computer signal processing algorithms within a particular musical context. Featuring jazz pianist Gabe Evens, and classical percussionist Greg Byrne, and Ritz himself as the album’s composer, cellist, and analog synthesizer, this Ravello Records release delivers a stimulating world of electroacoustic sound, a smooth blend of suspense and innovation.

Tracklist:
01. Chance Designs
02. Cycles of Formation
03. Drift
04. Mote of Dust
05. Percussion and Electronics
06. Rust

foobar2000 1.4.1 / Dynamic Range Meter 1.1.1
log date: 2023-09-23 12:47:25

––––––––––––––––––––––––––––––––––––––––
Analyzed: John Ritz / Cycles of Formation
––––––––––––––––––––––––––––––––––––––––

DR Peak RMS Duration Track
––––––––––––––––––––––––––––––––––––––––
DR11 -0.91 dB -16.84 dB 6:45 01-Chance Designs
DR12 -0.91 dB -17.13 dB 8:15 02-Cycles of Formation
DR14 -0.91 dB -20.64 dB 7:54 03-Drift
DR10 -0.91 dB -15.18 dB 8:18 04-Mote of Dust
DR14 -0.91 dB -20.12 dB 7:46 05-Percussion and Electronics
DR12 -0.91 dB -18.32 dB 8:46 06-Rust
––––––––––––––––––––––––––––––––––––––––

Number of tracks: 6
Official DR value: DR12

Samplerate: 48000 Hz
Channels: 2
Bits per sample: 24
Bitrate: 1626 kbps
Codec: FLAC
================================================================================


Thanks to the Original customer!