Joni Mitchell - Blue 50 (Demos & Outtakes) (EP) (2021) [Official Digital Download 24/48-192]

Posted By: delpotro
Joni Mitchell - Blue 50 (Demos & Outtakes) (EP) (2021) [Official Digital Download 24/48-192]

Joni Mitchell - Blue 50 (Demos & Outtakes) (EP) (2021)
FLAC (tracks) 24-bit/48-192 kHz | Front Cover | Time - 19:47 minutes | 329 MB
Folk Rock, Pop Rock, Singer-Songwriter, Female Vocal | Label: Rhino Entertainment, Official Digital Download

Today, five previously unreleased demos and outtakes from the album are available as part of a digital EP called Blue 50 (Demos & Outtakes). These songs will also be included on Joni Mitchell Archives Vol. 2: The Reprise Years (1968-1971), a compilation coming out in October that will document the period leading up to Blue.

Blue 50 (Demos & Outtakes) includes early demos of “A Case Of You” and “California,” an alternate version of “River” that features French horns, an early take of “Urge For Going,” a song that was intended for Blue but didn’t see a proper release until a 1996 greatest hits compilation, and a studio recording of “Hunter,” which Mitchell played live but never officially put out.

Tracklist:
1. A Case Of You (Blue Sessions Demo) (04:00)
2. California (Blue Sessions Demo) (03:39)
3. Hunter (Blue Sessions) (02:57)
4. River (With French Horns) [Blue Sessions] (04:05)
5. Urge For Going (With Strings) [Blue Sessions] (05:05)

foobar2000 1.4.1 / Dynamic Range Meter 1.1.1
log date: 2021-06-22 16:25:03

––––––––––––––––––––––––––––––––––––––––
Analyzed: Joni Mitchell / Blue 50 (Remastered Demos & Outtakes)
––––––––––––––––––––––––––––––––––––––––

DR Peak RMS Duration Track
––––––––––––––––––––––––––––––––––––––––
DR9 -6.79 dB -19.13 dB 4:01 01-A Case Of You (Blue Sessions Demo 96Khz)
DR8 -6.43 dB -17.93 dB 3:39 02-California (Blue Sessions Demo 96 kHz)
DR11 -1.82 dB -15.51 dB 2:57 03-Hunter (Blue Sessions)
DR11 -2.49 dB -17.94 dB 4:05 04-River (With French Horns) (Blue Sessions)
––––––––––––––––––––––––––––––––––––––––

Number of tracks: 4
Official DR value: DR10

Samplerate: 48000 Hz
Channels: 2
Bits per sample: 24
Bitrate: 1391 kbps
Codec: FLAC
================================================================================

––––––––––––––––––––––––––––––––––––––––
Statistics for: 05-Urge For Going (With Strings) (Blue Sessions)
Number of samples: 58609274
Duration: 5:05
––––––––––––––––––––––––––––––––––––––––

Left Right

Peak Value: -6.53 dB –- -5.45 dB
Avg RMS: -18.99 dB –- -18.21 dB
DR channel: 8.82 dB –- 9.44 dB
––––––––––––––––––––––––––––––––––––––––

Official DR Value: DR9

Samplerate: 192000 Hz
Channels: 2
Bits per sample: 24
Bitrate: 4585 kbps
Codec: FLAC
================================================================================

Thanks to the Original customer!