Tags
Language
Tags

Julian Bliss Septet - A Tribute to Benny Goodman (2012) [Official Digital Download]

Posted By:
Julian Bliss Septet - A Tribute to Benny Goodman (2012) [Official Digital Download]

Julian Bliss Septet - A Tribute to Benny Goodman (2012)
FLAC (tracks) 24-bit/44.10 kHz | Time - 49:55 | 503 MB
Studio Master, Official Digital Download | Artwork: Front cover+digital booklet

Recreating the exciting sound of swing from the 30’s and 40’s, Julian Bliss’s dynamic virtuosity leads his sextet through some of the great tunes of the swing era, staying true to the authentic feel but naturally with a modern twist.
Julian Bliss says: “I decided in the summer of 2010 that I wanted to start my own Jazz group. I enlisted the help of Neal Thornton (Piano) to help make this dream a reality. We spent months listening to every version of each tune we could find, and putting together our own versions while still being mindful of the light and fun feel Goodman captured all those years ago. We then had the task of putting the rest of the band together. We were specifically looking for musicians that had a great interest in the Swing era, and I must say we couldn’t have picked a better set of players.”



Tracklist:

1. Don't Be That Way / Stompin' At the Savoy
2. Caprice No.24
3. Up a Lazy River
4. The World Is Waiting for the Sunrise
5. Moonglow
6. Lady Be Good (Rifftide)
7. Seven Come Eleven
8. Here's That Rainy Day
9. Sheik of Araby
10. Goodbye
11. Avalon
12. Soft Winds
13. After You've Gone

Julian Bliss clarinet
Neal Thornton piano
Martin Shaw trumpet
Colin Oxley guitar
Tim Thornton bass
Matt Skelton drums
Jim Hart vibes

foobar2000 1.4 / Dynamic Range Meter 1.1.1
log date: 2021-01-27 07:23:37

––––––––––––––––––––––––––––––––––––––––
Analyzed: Martin Shaw / Julian Bliss: A Tribute to Benny Goodman
––––––––––––––––––––––––––––––––––––––––

DR Peak RMS Duration Track
––––––––––––––––––––––––––––––––––––––––
DR13 -2.72 dB -19.14 dB 4:26 01-Don't Be That Way / Stompin' At the Savoy
DR13 -3.61 dB -19.28 dB 3:05 02-Caprice No.24
DR14 -0.62 dB -19.57 dB 4:41 03-Up a Lazy River
DR12 0.00 dB -17.83 dB 4:25 04-The World Is Waiting for the Sunrise
DR11 -4.84 dB -20.74 dB 4:20 05-Moonglow
DR12 -2.78 dB -17.75 dB 4:14 06-Lady Be Good (Rifftide)
DR12 -4.19 dB -19.29 dB 2:42 07-Seven Come Eleven
DR10 -5.02 dB -19.68 dB 5:29 08-Here's That Rainy Day
DR13 -0.42 dB -17.44 dB 3:24 09-Sheik of Araby
DR9 -5.64 dB -20.11 dB 3:34 10-Goodbye
DR12 -2.51 dB -17.29 dB 2:37 11-Avalon
DR13 -4.67 dB -20.95 dB 2:47 12-Soft Winds
DR13 -0.32 dB -18.25 dB 4:17 13-After You've Gone
––––––––––––––––––––––––––––––––––––––––

Number of tracks: 13
Official DR value: DR12

Samplerate: 44100 Hz
Channels: 2
Bits per sample: 24
Bitrate: 1397 kbps
Codec: FLAC
================================================================================



Thanks to the Original customer!