Tags
Language
Tags

Kajsa Lindgren - Momentary Harmony (2021) [Official Digital Download]

Posted By: delpotro
Kajsa Lindgren - Momentary Harmony (2021) [Official Digital Download]

Kajsa Lindgren - Momentary Harmony (2021)
FLAC (tracks) 24-bit/44,1 kHz | Front Cover | Time - 37:08 minutes | 352 MB
Experimental Electronic, Ambient | Label: Recital, Official Digital Download

Swedish composer Kajsa Lindgren controls an environment of whisper-quiet fragility on her latest album for Sean McCann's Recital imprint. Clean, precise and contemporary, but rooted in European sacred music of the recent past >> one for fans of Félicia Atkinson, Sarah Davachi, Kali Malone or Arvo Pärt.

Lindgren reduces her sound to its bare essentials on "Momentary Harmony", drifting away from the electroacoustic ambience and field recording of its predecessors "Everyone Is Here" and "Womb" to explore the classical music she grew up with. Using voice, violin and piano, Lindgren creates the sound equivalent of a flickering candle in an icy church basement: quiet, warm and delicate.

The album is made up of familiar elements, but Lindgren rarely resorts to melancholy emotional manipulation. Instead, she turns to minimalism to hint at European early music: soft voices are layered to make distant choirs, violin reminds of low-key recitals and sparse piano notes sound like a relative playing in an adjacent room. It's almost like a community-led dreamworld re-imagining of the Arvo Pärt catalog: religious grandeur dialed back to a reassuring resonant hum.

Tracklist:
1. Abundance (04:54)
2. For Voice I (00:59)
3. Pärlan (02:44)
4. Interlute (02:07)
5. Momentary Harmony (03:29)
6. Aero (02:44)
7. Intermission (01:37)
8. Punes (03:08)
9. Separate Thoughts (02:14)
10. Korall (07:00)
11. Feathers (01:12)
12. Vagga till sömns (03:18)
13. For Voice II (01:44)

foobar2000 1.4.1 / Dynamic Range Meter 1.1.1
log date: 2021-09-27 11:36:45

––––––––––––––––––––––––––––––––––––––––
Analyzed: Kajsa Lindgren / Momentary Harmony
––––––––––––––––––––––––––––––––––––––––

DR Peak RMS Duration Track
––––––––––––––––––––––––––––––––––––––––
DR11 -1.00 dB -16.24 dB 4:54 01-Abundance
DR8 -8.10 dB -20.49 dB 0:59 02-For Voice I
DR9 -1.00 dB -13.88 dB 2:44 03-Pärlan
DR9 -1.00 dB -15.04 dB 2:07 04-Interlute
DR11 -1.59 dB -17.98 dB 3:29 05-Momentary Harmony
DR10 -1.32 dB -15.24 dB 2:44 06-Aero
DR9 -2.65 dB -19.42 dB 1:37 07-Intermission
DR10 -1.00 dB -16.27 dB 3:08 08-Punes
DR11 -1.00 dB -19.67 dB 2:14 09-Separate Thoughts
DR9 -1.00 dB -15.01 dB 7:00 10-Korall
DR10 -1.91 dB -16.10 dB 1:12 11-Feathers
DR8 -1.00 dB -13.91 dB 3:18 12-Vagga till sömns
DR9 -10.64 dB -24.65 dB 1:44 13-For Voice II
––––––––––––––––––––––––––––––––––––––––

Number of tracks: 13
Official DR value: DR10

Samplerate: 44100 Hz
Channels: 2
Bits per sample: 24
Bitrate: 1244 kbps
Codec: FLAC
================================================================================


Thanks to the Original customer!