Tags
Language
Tags

Karen Elson - Green (2022) [Official Digital Download 24/96]

Posted By: delpotro
Karen Elson - Green (2022) [Official Digital Download 24/96]

Karen Elson - Green (2022)
FLAC (tracks) 24-bit/96 kHz | Front Cover | Time - 23:53 minutes | 470 MB
Indie Folk, Singer-Songwriter, Female Vocal | Label: Big Yellow Dog Music, Official Digital Download

The singer-songwriter has also announced her third studio album ‘Green’ which will be released via Big Yellow Dog on April 29. She’s referred to the contemplative new track, as an “autobiographical song” adding: “the lyrics poured out of me.” “‘Broken Shadow’ is about recognizing that we’re all flawed, complicated, and a little bit fucked up and making peace with that,” Elson said. “It’s about loving the broken parts of yourself.” The single also features on the Warner Brothers sci-fi romantic comedy, Moonshot.

She continued: “COVID strangely catapulted me into this frame of deep reflection. I did a lot of work to reconcile places in the past I deemed broken or complicated and showed the shadow back to myself. I’m telling the shadow, ‘You’re my friend and a part of me. Let’s continue’.” You can stream the track here.

The haunting music video for ‘Broken Shadow’ was directed by Elson and Nashville-based photographer, Emily Dorio and captured by cinematographer Mika Matinazad. It features the singer standing solo in a smoke-filled room, strumming her guitar in solitude, glancing into a broken mirror, and letting a snake wrap itself around her neck.

In the ethereal track, she sings about embracing the darker aspects of herself with the lyrics, “when I was young I let the darkness drag me down / but I’m not afraid these days.”

“This song means so much to me,” Elson shared earlier this week on twitter, adding that it “kick-started a new musical chapter” for her.

She co-wrote and produced ‘Green’ with Nashville music mainstays Daniel Tashian and Ian Fitchuk who won multiple Grammy Awards for their work on Kacey Musgraves ‘Golden Hour’.

Tracklist:
1. My Sparrow (03:27)
2. Broken Shadow (03:14)
3. Green (03:03)
4. Modern Love (02:38)
5. Wishing Well (02:25)
6. Lightning Strikes (02:07)
7. Silver Lining (02:35)
8. Fergus in the Sun (01:55)
9. Look over My Shoulder (02:26)

foobar2000 1.4.1 / Dynamic Range Meter 1.1.1
log date: 2022-04-28 18:41:22

––––––––––––––––––––––––––––––––––––––––
Analyzed: Karen Elson / Green
––––––––––––––––––––––––––––––––––––––––

DR Peak RMS Duration Track
––––––––––––––––––––––––––––––––––––––––
DR7 -0.08 dB -8.37 dB 3:28 01-My Sparrow
DR6 -0.54 dB -8.98 dB 3:15 02-Broken Shadow
DR7 -0.08 dB -9.25 dB 3:03 03-Green
DR6 -0.08 dB -7.14 dB 2:38 04-Modern Love
DR6 -0.08 dB -8.99 dB 2:25 05-Wishing Well
DR6 -0.23 dB -7.60 dB 2:07 06-Lightning Strikes
DR7 -0.08 dB -8.97 dB 2:36 07-Silver Lining
DR8 -0.08 dB -10.45 dB 1:55 08-Fergus In The Sun
DR6 -0.08 dB -8.20 dB 2:27 09-Look Over My Shoulder
––––––––––––––––––––––––––––––––––––––––

Number of tracks: 9
Official DR value: DR7

Samplerate: 96000 Hz
Channels: 2
Bits per sample: 24
Bitrate: 2823 kbps
Codec: FLAC
================================================================================


Thanks to the Original customer!