Tags
Language
Tags

Karen Marguth - Until (2021) [Official Digital Download]

Posted By: delpotro
Karen Marguth - Until (2021) [Official Digital Download]

Karen Marguth - Until (2021)
FLAC (tracks) 24-bit/44,1 kHz | Front Cover | Time - 52:59 minutes | 571 MB
Vocal Jazz | Label: Origin Records, Official Digital Download

Based in the East Bay, vocalist Karen Marguth found her calling in jazz while living in Fresno, CA through the early 2000s. California's Central Valley sustains a surprisingly thriving jazz community and it was there that Marguth earned national renown with her four jazz albums, featuring the tight circle of musicians she surrounded herself with. Until features her interaction with two Fresno groups, along with a third, representing her latest collaborators from the Bay Area. Though presenting three distinct ensembles on an array of material recorded over the last decade, the album is remarkably cohesive and brimming with emotional generosity. From the strutting arrangement of "Comes Love," to the shimmering title tune from Paul Simon's 1983 release, "Hearts & Bones," or the closing, intimate duo rendition of "Days of Wine & Roses," Marguth shows an uncanny ability to mine hidden gems that others miss, while creating a warm & creative environment for her bandmates to thrive in. An artist who's still stretching her wings, she adds another consistently captivating chapter to her discography with Until.

Tracklist:
1. Comes Love (04:13)
2. Until (05:07)
3. Black Crow (05:23)
4. What Color is Love (05:02)
5. La Ronda (03:42)
6. Hearts and Bones (06:20)
7. Maureen (04:24)
8. Close Your Eyes (04:08)
9. Twistable Turnable Man (04:58)
10. Old Friends / Bookends (05:35)
11. Days of Wine and Roses (04:03)

foobar2000 1.6.8 beta 3 / Dynamic Range Meter 1.1.1
log date: 2021-10-17 06:05:52

––––––––––––––––––––––––––––––––––––––––
Analyzed: Karen Marguth / Until
––––––––––––––––––––––––––––––––––––––––

DR Peak RMS Duration Track
––––––––––––––––––––––––––––––––––––––––
DR11 -0.36 dB -13.34 dB 4:13 01-Comes Love
DR11 -0.24 dB -13.36 dB 5:07 02-Until
DR10 -0.32 dB -13.42 dB 5:23 03-Black Crow
DR11 -0.36 dB -14.01 dB 5:02 04-What Color is Love
DR11 -0.34 dB -12.85 dB 3:42 05-La Ronda
DR11 -0.35 dB -12.67 dB 6:20 06-Hearts and Bones
DR11 -0.27 dB -14.01 dB 4:25 07-Maureen
DR11 -0.37 dB -13.76 dB 4:09 08-Close Your Eyes
DR11 -0.37 dB -13.33 dB 4:58 09-Twistable Turnable Man
DR12 -0.36 dB -15.47 dB 5:35 10-Old Friends / Bookends
DR11 -0.41 dB -16.41 dB 4:04 11-Days of Wine and Roses
––––––––––––––––––––––––––––––––––––––––

Number of tracks: 11
Official DR value: DR11

Samplerate: 44100 Hz
Channels: 2
Bits per sample: 24
Bitrate: 1305 kbps
Codec: FLAC
================================================================================


Thanks to the Original customer!