Kate Tempest - The Book Of Traps And Lessons (2019) [Official Digital Download 24/96]

Posted By: delpotro
Kate Tempest - The Book Of Traps And Lessons (2019) [Official Digital Download 24/96]

Kate Tempest - The Book Of Traps And Lessons (2019)
FLAC (tracks) 24-bit/96 kHz | Front Cover | Time - 45:02 minutes | 805 MB
Electronic, Spoken Word | Label: American Recordings, Official Digital Download

Passionate spoken words and lyrical prose match with beats flooding in on a wave of emotion.

Poet, performer, lyricist, rapper, artist, writer and playwright Kate Tempest has received and been nominated for multiple awards (including the Mercury / Brit Awards / the Ted Hughes prize…) This is the third studio album from Kate Tempest, built over the last five years with Rick Rubin and Dan Carey. These are the teaches of Tempest - evocative vocals serve up a slice of grimy everyday life. Words flow turning the mundane into poetry and a flowing lyric-garden of beauty. The distinctive tones of Kate Tempest are augmented with jazz and beats musical bits and pieces into a sprinkling of gritty 100s and 1000s.

Tracklist:
1. Thirsty
2. Keep Moving Don't Move
3. Brown Eyed Man
4. Three Sided Coin
5. I Trap You
6. All Humans Too Late
7. Hold Your Own
8. Lessons
9. Firesmoke
10. Holy Elixir
11. People's Faces

foobar2000 1.4.1 / Dynamic Range Meter 1.1.1
log date: 2021-05-31 16:27:00

––––––––––––––––––––––––––––––––––––––––
Analyzed: Kate Tempest / The Book Of Traps And Lessons
––––––––––––––––––––––––––––––––––––––––

DR Peak RMS Duration Track
––––––––––––––––––––––––––––––––––––––––
DR12 -0.22 dB -14.58 dB 3:26 01-Thirsty
DR7 -0.20 dB -9.40 dB 5:49 02-Keep Moving Don't Move
DR9 -0.20 dB -12.22 dB 3:05 03-Brown Eyed Man
DR7 -0.20 dB -10.00 dB 4:02 04-Three Sided Coin
DR10 -0.21 dB -12.02 dB 3:33 05-I Trap You
DR11 -0.22 dB -14.13 dB 3:06 06-All Humans Too Late
DR10 -0.20 dB -11.51 dB 4:07 07-Hold Your Own
DR8 -0.20 dB -10.96 dB 4:05 08-Lessons
DR7 -0.20 dB -8.94 dB 3:35 09-Firesmoke
DR8 -0.20 dB -9.28 dB 4:57 10-Holy Elixir
DR8 -0.20 dB -10.06 dB 5:17 11-People's Faces
––––––––––––––––––––––––––––––––––––––––

Number of tracks: 11
Official DR value: DR9

Samplerate: 96000 Hz
Channels: 2
Bits per sample: 24
Bitrate: 2465 kbps
Codec: FLAC
================================================================================


Thanks to the Original customer!