Tags
Language
Tags

Kenny Chesney - Here And Now (Deluxe Edition) (2020/2021) [Official Digital Download 24/88-96]

Posted By: delpotro
Kenny Chesney - Here And Now (Deluxe Edition) (2020/2021) [Official Digital Download 24/88-96]

Kenny Chesney - Here And Now (Deluxe Edition) (2020/2021)
FLAC (tracks) 24-bit/88,2-96 kHz | Front Cover | Time - 57:09 minutes | 1,18 GB
Country Rock | Label: Blue Chair Records, Official Digital Download

The dozen existing songs – including the No. 1 title track ‘Here And Now,’ the sensual ‘Tip of My Tongue’ and the glass half full ‘Happy Does’ – are being supplemented by four equally diverse tracks: ‘Wind On’ from David Lee Murphy and Rodney Clawson, ‘Fields of Glory’ from Josh Osborne, Ashley Gorley and Ross Copperman, ‘My Anthem’ from Josh Osborne, Shane McAnally and Jason Gantt and ‘Streets,’ co-written with Tom Douglas.

“Being home, writing with friends, recording with people who inspire you,” Chesney says, “this time has taught me to really be in the moment, to share more music. Some of these songs will spark an immediate hunger for things we all love; some of them I think people will think about for days and days after they hear them.

“With so much still unsettled, I didn’t want to wait any more to share them.”

Chesney’s latest single ‘Knowing You” arrived at country radio this week. With a cinematic video that moves from black and white to Technicolor, representing how those magic moments can sustain us in bleaker, flatter times, ‘Knowing You’ has pressed the album back up the charts.

“This isn’t about death, or losing someone to the other side,” Chesney explains. “It can be a lover who’s left or group of friends who came together, dreamed together, then went off to chase those things. You may never be together again, but that moment – no matter where you are – you can close your eyes and remember everything about the people, the places, the joy comes right back.

“Those people, those experiences change you. You’re better for them if you’ll see them for what they were and how they made you better. So I’m really happy to know that what I heard when I first heard the demo is how other people are feeling whether they see the video, stream it somewhere or hear it on radio.

“And because of that, too, I’m glad we’re making this Deluxe available now. If you love ‘Knowing You’ and this album, we’re making it even a little bit more special.”

Contemporary country star Kenny Chesney didn't have the immediate breakout success that many of his peers enjoyed upon signing with major labels, but gradually built up a significant following via hard work, pop-friendly ballads, and a likable "Average Joe" persona. Chesney was born in Knoxville, Tennessee in 1968 and raised in the nearby small town of Luttrell, best known as the home of Chet Atkins. He grew up listening to both country and rock & roll, but didn't get serious about music until college, when he studied marketing at East Tennessee State University. He received a guitar as a Christmas present and set about practicing, and was soon performing with the college bluegrass band. He soon started writing songs as well and played for tips in local venues – most often a Mexican restaurant – every night he could; additionally, he managed to sell 1,000 copies of a self-released demo album. After graduation in 1991, he moved to Nashville and became the resident performer at The Turf, a rough honky tonk in the city's historic district. While he gained experience, it wasn't the sort of place where he'd be discovered, and in 1992 he moved on to a publishing deal with Acuff-Rose. From there he landed a record contract with Capricorn and released his debut album, In My Wildest Dreams, in late 1993.

Tracklist:
1. We Do (03:25)
2. Here And Now (02:51)
3. Everyone She Knows (03:24)
4. Wasted (03:48)
5. Knowing You (03:46)
6. Heartbreakers (03:16)
7. Someone To Fix (03:31)
8. Happy Does (02:48)
9. Tip of My Tongue (03:19)
10. You Don't Get To (03:36)
11. Beautiful World (03:10)
12. Guys Named Captain (04:03)
13. Wind On (04:20)
14. Fields Of Glory (03:21)
15. My Anthem (03:18)
16. Streets (05:05)

foobar2000 1.4.1 / Dynamic Range Meter 1.1.1
log date: 2021-05-07 12:01:05

––––––––––––––––––––––––––––––––––––––––
Analyzed: Kenny Chesney / Here And Now (Deluxe)
––––––––––––––––––––––––––––––––––––––––

DR Peak RMS Duration Track
––––––––––––––––––––––––––––––––––––––––
DR5 -0.20 dB -6.32 dB 3:26 01-We Do
DR5 -0.20 dB -6.19 dB 2:51 02-Here And Now
DR6 -0.20 dB -7.15 dB 3:25 03-Everyone She Knows
DR6 -0.20 dB -7.23 dB 3:49 04-Wasted
DR6 -0.20 dB -7.89 dB 3:46 05-Knowing You
DR6 -0.20 dB -6.98 dB 3:17 06-Heartbreakers
DR7 -0.20 dB -9.25 dB 3:32 07-Someone To Fix
DR5 -0.20 dB -7.43 dB 2:49 08-Happy Does
DR6 -0.20 dB -8.17 dB 3:37 10-You Don't Get To
DR6 -0.20 dB -7.89 dB 3:11 11-Beautiful World
DR10 -0.20 dB -12.96 dB 4:03 12-Guys Named Captain
DR4 -0.20 dB -5.00 dB 4:20 13-Wind On
DR5 -0.20 dB -6.97 dB 3:21 14-Fields Of Glory
DR4 -0.20 dB -6.27 dB 3:18 15-My Anthem
DR6 -0.20 dB -8.92 dB 5:05 16-Streets
––––––––––––––––––––––––––––––––––––––––

Number of tracks: 15
Official DR value: DR6

Samplerate: 96000 Hz
Channels: 2
Bits per sample: 24
Bitrate: 2842 kbps
Codec: FLAC
================================================================================

foobar2000 1.4.1 / Dynamic Range Meter 1.1.1
log date: 2021-05-07 12:00:19

––––––––––––––––––––––––––––––––––––––––
Statistics for: 09-Tip of My Tongue
Number of samples: 17588256
Duration: 3:19
––––––––––––––––––––––––––––––––––––––––

Left Right

Peak Value: -0.20 dB –- -0.20 dB
Avg RMS: -8.23 dB –- -8.69 dB
DR channel: 5.37 dB –- 6.08 dB
––––––––––––––––––––––––––––––––––––––––

Official DR Value: DR6

Samplerate: 88200 Hz
Channels: 2
Bits per sample: 24
Bitrate: 2756 kbps
Codec: FLAC
================================================================================

Thanks to the Original customer!