Tags
Language
Tags

Kosheen - Resist (2021 Remaster) (2001/2021) [Official Digital Download]

Posted By:
Kosheen - Resist (2021 Remaster) (2001/2021) [Official Digital Download]

Kosheen - Resist (2021 Remaster) (2001/2021)
FLAC (tracks) 24-bit/44,1 kHz | Front Cover | Time - 62:40 minutes | 741 MB
Electronic, Trip-Hop, Drum and Bass, Female Vocal | Label: Moksha Recordings, Official Digital Download

Resist is the debut album by English electronica group Kosheen. The album was first released on 25 June 2001 in the Benelux countries as a limited edition by Moksha Records. The UK edition was then released on September 17 as a sixteen-track record by Sony BMG.

Tracklist:
1. Demonstrate (2021 Remaster) (00:26)
2. Hide U (2021 Remaster) (04:12)
3. Catch (2021 Remaster) (03:23)
4. Cover (2021 Remaster) (03:49)
5. Harder (2021 Remaster) (04:17)
6. (Slip & Slide) Suicide (2021 Remaster) (03:35)
7. Empty Skies (2021 Remaster) (04:12)
8. I Want It All (2021 Remaster) (05:07)
9. Resist (2021 Remaster) (04:47)
10. Hungry (2021 Remaster) (05:26)
11. Face In a Crowd (2021 Remaster) (03:43)
12. Pride (2021 Remaster) (04:01)
13. Cruelty (2021 Remaster) (04:04)
14. Let Go (2021 Remaster) (04:20)
15. Gone (2021 Remaster) (03:38)
16. Hide U (John Creamer & Stephane K Remix Edit 2021 Remaster) (03:33)

foobar2000 1.6.7 beta 17 / Dynamic Range Meter 1.1.1
log date: 2021-08-02 18:09:39

––––––––––––––––––––––––––––––––––––––––
Analyzed: Kosheen / Resist (2021 Remaster)
––––––––––––––––––––––––––––––––––––––––

DR Peak RMS Duration Track
––––––––––––––––––––––––––––––––––––––––
DR12 -2.00 dB -17.08 dB 0:27 01-Demonstrate (2021 Remaster)
DR6 -0.03 dB -7.33 dB 4:12 02-Hide U (2021 Remaster)
DR6 0.00 dB -6.92 dB 3:24 03-Catch (2021 Remaster)
DR6 -0.26 dB -8.20 dB 3:50 04-Cover (2021 Remaster)
DR7 -0.03 dB -9.18 dB 4:18 05-Harder (2021 Remaster)
DR7 -0.03 dB -8.31 dB 3:35 06-(Slip & Slide) Suicide (2021 Remaster)
DR6 -0.03 dB -7.67 dB 4:12 07-Empty Skies (2021 Remaster)
DR6 -0.03 dB -7.77 dB 5:07 08-I Want It All (2021 Remaster)
DR6 -0.03 dB -7.93 dB 4:47 09-Resist (2021 Remaster)
DR5 -0.26 dB -8.23 dB 5:26 10-Hungry (2021 Remaster)
DR6 -0.03 dB -8.42 dB 3:44 11-Face in a Crowd (2021 Remaster)
DR6 -0.26 dB -7.51 dB 4:01 12-Pride (2021 Remaster)
DR8 -0.11 dB -9.13 dB 4:05 13-Cruelty (2021 Remaster)
DR6 -0.08 dB -9.32 dB 4:20 14-Let Go (2021 Remaster)
DR5 0.00 dB -7.19 dB 3:39 15-Gone (2021 Remaster)
DR5 -0.06 dB -6.59 dB 3:33 16-Hide U (John Creamer & Stephane K Remix Edit|2021 Remaster)
––––––––––––––––––––––––––––––––––––––––

Number of tracks: 16
Official DR value: DR6

Samplerate: 44100 Hz
Channels: 2
Bits per sample: 24
Bitrate: 1741 kbps
Codec: FLAC
================================================================================


Thanks to the Original customer!