Tags
Language
Tags

Kraftwerk - Computer World (Remastered Vinyl) (1981/2020) [24bit/96kHz]

Posted By: delpotro
Kraftwerk - Computer World (Remastered Vinyl) (1981/2020) [24bit/96kHz]

Kraftwerk - Computer World (Remastered Vinyl) (1981/2020)
Vinyl Rip | FLAC (tracks) 24-bit/96 kHz | Front Cover | Time - 34:30 minutes | 652 MB
Experimental Electronic, Synthpop | Label: Kling Klang

Computer World (German: Computerwelt) is the eighth studio album by German electronic band Kraftwerk, released on 10 May 1981. The album deals with the themes of the rise of computers within society. In keeping with the album's concept, Kraftwerk showcased their music on an ambitious world tour. The compositions are credited to Ralf Hütter, Florian Schneider, and Karl Bartos. As was the case with the two previous albums, Computer World was released in both German- and English-language editions.

Tracklist:
A1 – Computer World (05:06)
A2 – Pocket Calculator (04:57)
A3 – Numbers (03:20)
A4 – Computer World 2 (03:25)
B1 – Computer Love (07:19)
B2 – Home Computer (06:21)
B3 – It's More Fun To Compute (04:16)

foobar2000 1.4.1 / Dynamic Range Meter 1.1.1
log date: 2020-11-15 15:17:22

––––––––––––––––––––––––––––––––––––––––
Analyzed: Kraftwerk / Computer World
––––––––––––––––––––––––––––––––––––––––

DR Peak RMS Duration Track
––––––––––––––––––––––––––––––––––––––––
DR12 -0.02 dB -14.60 dB 5:06 01-Computer World
DR13 -0.57 dB -15.61 dB 4:57 02-Pocket Calculator
DR14 -0.90 dB -18.28 dB 3:20 03-Numbers
DR12 -0.02 dB -16.62 dB 3:13 04-Computer World 2
DR11 -1.30 dB -15.04 dB 7:20 05-Computer Love
DR12 -0.56 dB -16.50 dB 6:21 06-Home Computer
DR11 -2.22 dB -16.11 dB 4:13 07-It's More Fun To Compute
––––––––––––––––––––––––––––––––––––––––

Number of tracks: 7
Official DR value: DR12

Samplerate: 96000 Hz
Channels: 2
Bits per sample: 24
Bitrate: 2757 kbps
Codec: FLAC
================================================================================


Thanks to the Original customer!