Tags
Language
Tags

Kraftwerk - The Mix (Remastered Vinyl) (1991/2020) [24bit/96kHz]

Posted By: delpotro
Kraftwerk - The Mix (Remastered Vinyl) (1991/2020) [24bit/96kHz]

Kraftwerk - The Mix (Remastered Vinyl) (1991/2020)
Vinyl Rip | FLAC (tracks) 24-bit/96 kHz | Front Cover | Time - 65:19 minutes | 1,25 GB
Experimental Electronic, Synthpop | Label: Kling Klang

The Mix is a remix album by German electronic music band Kraftwerk. It was released on 11 June 1991 through Kling Klang and EMI in Europe and through Elektra Records in North America. It featured re-recorded and, in some cases, re-arranged versions of a selection of songs which had originally appeared on the albums Autobahn (1974) through Electric Café (1986). Ralf Hütter stated in interviews that he regarded The Mix as a type of live album, as it captured the results of the band's continual digital improvisations in their Kling Klang studio. The band had made a return to the stage in 1990, after a nine-year hiatus from touring, and since then the band's live setlist has used arrangements drawn from The Mix rather than the original recordings.

Tracklist:
A1 – The Robots (08:59)
A2 – Computer Love (06:39)
B1 – Pocket Calculator (04:32)
B2 – Dentaku (03:27)
B3 – Autobahn (09:28)
C1 – Radioactivity (06:53)
C2 – Trans Europe Express (03:20)
C3 – Abzug (02:18)
C4 – Metal On Metal (04:59)
D1 – Home Computer (08:03)
D2 – Music Non Stop (06:38)

foobar2000 1.4.1 / Dynamic Range Meter 1.1.1
log date: 2020-11-14 11:51:17

––––––––––––––––––––––––––––––––––––––––
Analyzed: Kraftwerk / The Mix
––––––––––––––––––––––––––––––––––––––––

DR Peak RMS Duration Track
––––––––––––––––––––––––––––––––––––––––
DR14 -0.02 dB -15.82 dB 8:57 01-The Robots
DR13 -0.65 dB -15.37 dB 6:37 02-Computer Love
DR14 -0.42 dB -15.69 dB 4:35 03-Pocket Calculator
DR14 -0.83 dB -15.94 dB 3:26 04-Dentaku
DR12 -0.01 dB -14.48 dB 9:29 05-Autobahn
DR13 -0.37 dB -15.25 dB 6:51 06-Radioactivity
DR14 -1.57 dB -17.24 dB 3:20 07-Trans Europe Express
DR13 -0.54 dB -15.97 dB 2:18 08-Abzug
DR13 -1.47 dB -17.08 dB 4:59 09-Metal On Metal
DR12 -0.10 dB -14.09 dB 8:02 10-Home Computer
DR14 -0.56 dB -16.31 dB 6:46 11-Music Non Stop
––––––––––––––––––––––––––––––––––––––––

Number of tracks: 11
Official DR value: DR13

Samplerate: 96000 Hz
Channels: 2
Bits per sample: 24
Bitrate: 2709 kbps
Codec: FLAC
================================================================================


Thanks to the Original customer!