Tags
Language
Tags

Kraftwerk - Tour De France (Remastered Vinyl) (2003/2020) [24bit/96kHz]

Posted By: delpotro
Kraftwerk - Tour De France (Remastered Vinyl) (2003/2020) [24bit/96kHz]

Kraftwerk - Tour De France (Remastered Vinyl) (2003/2020)
Vinyl Rip | FLAC (tracks) 24-bit/96 kHz | Front Cover | Time - 55:57 minutes | 1,01 GB
Experimental Electronic, Synthpop | Label: Kling Klang

Tour de France Soundtracks (renamed to Tour de France for its remastered release) is the tenth studio album by German electronic music band Kraftwerk. It was first released on 4 August 2003, through Kling Klang and EMI in Europe and Astralwerks in North America. The album was recorded for the 100th anniversary of the first Tour de France bicycle race, although it missed its intended release date for the actual tour. It includes a new recording of their 1983 song of the same name, the cover artwork of both releases being nearly identical. The announcement of the release caused much anticipation, as it had been 17 years since the group had put out a full album of new studio material (1986's Electric Café, also known as Techno Pop). The album received positive reviews from critics and was a commercial success. It reached No. 1 in Germany, the top 40 in the UK, as well as No. 3 in the US dance charts.

Tracklist:
A1 – Prologue
A2 – Tour De France Étape 1
A3 – Tour De France Étape 2
A4 – Tour De France Étape 3
A5 – Chrono
B – Vitamin
C1 – Aéro Dynamik
C2 – Titanium
C3 – Elektro Kardiogramm
D1 – La Forme
D2 – Régéneration
D3 – Tour De France

foobar2000 1.4.1 / Dynamic Range Meter 1.1.1
log date: 2020-11-14 11:52:01

––––––––––––––––––––––––––––––––––––––––
Analyzed: Kraftwerk / Tour De France
––––––––––––––––––––––––––––––––––––––––

DR Peak RMS Duration Track
––––––––––––––––––––––––––––––––––––––––
DR13 -5.12 dB -23.31 dB 0:32 01-Prologue
DR15 -1.99 dB -18.73 dB 4:27 02-Tour De France Etape 1
DR13 -0.84 dB -16.12 dB 6:41 03-Tour De France Etape 2
DR13 -2.45 dB -17.52 dB 3:57 04-Tour De France Etape 3
DR13 -2.50 dB -16.98 dB 3:18 05-Chrono
DR13 -0.01 dB -14.25 dB 8:10 06-Vitamin
DR12 -0.11 dB -13.77 dB 5:05 07-Aéro Dynamyk
DR12 -1.49 dB -15.34 dB 3:22 08-Titanium
DR13 -0.97 dB -15.23 dB 5:19 09-Elektro Kardiogramm
DR13 -0.96 dB -17.11 dB 8:20 10-La Forme
DR14 -3.05 dB -22.78 dB 1:38 11-Régéneration
DR12 -0.67 dB -14.99 dB 5:08 12-Tour De France
––––––––––––––––––––––––––––––––––––––––

Number of tracks: 12
Official DR value: DR13

Samplerate: 96000 Hz
Channels: 2
Bits per sample: 24
Bitrate: 2667 kbps
Codec: FLAC
================================================================================


Thanks to the Original customer!