Tags
Language
Tags

Lacuna Coil - Live From The Apocalypse (2021) [Official Digital Download]

Posted By: delpotro
Lacuna Coil - Live From The Apocalypse (2021) [Official Digital Download]

Lacuna Coil - Live From The Apocalypse (2021)
FLAC (tracks) 24-bit/44,1 kHz | Front Cover | Time - 63:38 minutes | 823 MB
Alternative Metal, Female Vocal | Label: Century Media Records, Official Digital Download

LACUNA COIL’s new live album, Live from the Apocalypse, is the fruit of an unprecedented time. Unlike previous live efforts—'Visual Karma (Body, Mind and Soul)' (2008), 'Shallow Live: Acoustic at Criminal Records' (2010), and 'The 119 Show - Live in London' (2018)—the Italians, under the yoke of the pandemic, cleverly devised a way for their devoted fanbase to hear and see them on stage by organizing a special live stream event performing their latest album, 'Black Anima', in September 2020.

By all accounts, this was no ordinary gig. Even though LACUNA COIL were in their hometown of Milan—at the famed Alcatraz Club—there were no fans to greet them. No roar of anticipation; No claps of adulation; No interaction with the people who had become deeply involved in and had a profound love for LACUNA COIL’s music and live shows over two-plus decades. The live stream energy was different. It had to be. With hearts on their sleeves, cameras rolling, and the world tuning in online, LACUNA COIL brought “Black Anima: Live from the Apocalypse” to life.

Tracklist:
1. Anima Nera (Live from the Apocalypse) (01:54)
2. Sword of Anger (Live from the Apocalypse) (03:26)
3. Save Me (Live from the Apocalypse) (04:28)
4. Now Or Never (Live from the Apocalypse) (04:20)
5. Reckless (Live from the Apocalypse) (03:05)
6. Through the Flames (Live from the Apocalypse) (05:12)
7. Apocalypse (Live from the Apocalypse) (04:11)
8. Black Feathers (Live from the Apocalypse) (04:11)
9. Under the Surface (Live from the Apocalypse) (04:15)
10. The End Is All I Can See (Live from the Apocalypse) (03:59)
11. Veneficium (Live from the Apocalypse) (06:04)
12. Black Dried Up Heart (Live from the Apocalypse) (03:48)
13. Bad Things (Live from the Apocalypse) (03:09)
14. Layers of Time (Live from the Apocalypse) (04:03)
15. Black Anima (Live from the Apocalypse) (03:19)
16. Save Me (Apocalypse Version - Live from the Apocalypse) (04:05)

foobar2000 1.4.1 / Dynamic Range Meter 1.1.1
log date: 2021-06-26 09:03:14

––––––––––––––––––––––––––––––––––––––––
Analyzed: Lacuna Coil / Live From The Apocalypse
––––––––––––––––––––––––––––––––––––––––

DR Peak RMS Duration Track
––––––––––––––––––––––––––––––––––––––––
DR10 -0.11 dB -12.18 dB 1:54 01-Anima Nera
DR4 -0.11 dB -5.07 dB 3:27 02-Sword of Anger
DR4 -0.11 dB -5.98 dB 4:28 03-Save Me
DR4 -0.11 dB -5.39 dB 4:20 04-Now Or Never
DR5 -0.11 dB -5.67 dB 3:05 05-Reckless
DR5 -0.11 dB -5.68 dB 5:13 06-Through the Flames
DR4 -0.11 dB -5.83 dB 4:12 07-Apocalypse
DR4 -0.11 dB -5.51 dB 4:12 08-Black Feathers
DR4 -0.11 dB -5.19 dB 4:16 09-Under the Surface
DR4 -0.11 dB -5.19 dB 4:00 10-The End Is All I Can See
DR4 -0.11 dB -5.25 dB 6:05 11-Veneficium
DR4 -0.11 dB -5.45 dB 3:49 12-Black Dried Up Heart
DR5 -0.11 dB -5.93 dB 3:10 13-Bad Things
DR5 -0.11 dB -5.77 dB 4:04 14-Layers of Time
DR4 -0.11 dB -6.17 dB 3:19 15-Black Anima
DR9 -0.12 dB -12.03 dB 4:06 16-Save Me (Apocalypse Version)
––––––––––––––––––––––––––––––––––––––––

Number of tracks: 16
Official DR value: DR5

Samplerate: 44100 Hz
Channels: 2
Bits per sample: 24
Bitrate: 1502 kbps
Codec: FLAC
================================================================================


Thanks to the Original customer!