Tags
Language
Tags

Leo Svirsky - River Without Banks (2019) [Official Digital Download]

Posted By: delpotro
Leo Svirsky - River Without Banks (2019) [Official Digital Download]

Leo Svirsky - River Without Banks (2019)
FLAC (tracks) 24-bit/44,1 kHz | Front Cover | Time - 41:22 minutes | 184 MB
Modern Classical | Label: Unseen Worlds, Official Digital Download

“How to begin? No beginning… never ending reverberation,” Antoine Beuger writes in the accompanying notes to Leo Svirsky’s River Without Banks. Dedicated to his first piano teacher Irena Orlov, River Without Banks is a mesmerizing, emotional collection of pieces that are simultaneously complex and fluid. The title River Without Banks comes from a chapter of musicologist Genrikh “Henry” Orlov’s profound work Tree of Music. In said chapter, Orlov traces the history of sacred music from the Western and Eastern tradition and how the forms (of the chant, raga etc.) sought to eliminate the division between the physical and the spiritual—the bank and the river. Arranged for two pianos with accompaniment from strings, trumpet, and electronics, this is Svirsky’s deepest dive yet into the instability of listening and its transformation of musical semantics and affect. Like Wolfgang Voigt’s Gas project, Svirsky overlays romantic musical gestures to create a lush unfamiliarity. No sooner than each track begins the next moment unfurls beneath it, cascading time and blurring perception of past and present. River Without Banks is less an album of songs than songs of a singular, unlocatable album. Performed by the composer with assistance from Britton Powell, Max Eilbacher, Leila Bordreuil, Tim Byrnes, and recorded by Al Carlson.

Tracklist:
1. Field of Reeds (07:53)
2. River Without Banks (04:14)
3. Rain, Rivers, Forest, Corn, Wind, Sand (06:18)
4. Trembling Instants (05:11)
5. Strange Lands and People (10:14)
6. Fanfare (after Jeromos Kamphuis) (07:32)

foobar2000 1.4.1 / Dynamic Range Meter 1.1.1
log date: 2021-05-19 17:14:21

––––––––––––––––––––––––––––––––––––––––
Analyzed: Leo Svirsky / River Without Banks
––––––––––––––––––––––––––––––––––––––––

DR Peak RMS Duration Track
––––––––––––––––––––––––––––––––––––––––
DR10 0.00 dB -14.01 dB 7:53 01-Field of Reeds
DR9 -0.01 dB -12.97 dB 4:14 02-River Without Banks
DR10 -0.56 dB -12.67 dB 6:18 03-Rain, Rivers, Forest, Corn, Wind, Sand
DR10 -0.60 dB -12.71 dB 5:11 04-Trembling Instants
DR10 -0.15 dB -14.97 dB 10:14 05-Strange Lands and People
DR13 0.00 dB -16.75 dB 7:32 06-Fanfare (after Jeromos Kamphuis)
––––––––––––––––––––––––––––––––––––––––

Number of tracks: 6
Official DR value: DR10

Samplerate: 44100 Hz
Channels: 2
Bits per sample: 24
Bitrate: 484 kbps
Codec: FLAC
================================================================================


Thanks to the Original customer!