Tags
Language
Tags

Leo Takami - Felis Catus and Silence (2020) [Official Digital Download]

Posted By: delpotro
Leo Takami - Felis Catus and Silence (2020) [Official Digital Download]

Leo Takami - Felis Catus and Silence (2020)
FLAC (tracks) 24-bit/44,1 kHz | Front Cover | Time - 41:30 minutes | 383 MB
New Age, Modern Classical | Label: Unseen Worlds, Official Digital Download

Felis Catus and Silence is a breakthrough release for Tokyo composer-guitarist Leo Takami, following the milestone albums Children’s Song (2012) and Tree of Life (2017). Takami counterpoints the soothing aesthetics of prime-era Windham Hill New Age guitar-heroism with meditative, intellectual compositions comprised of ambitious, process-oriented arrangements. While Takami largely wears his genre influences on his sleeve – jazz, classical, Japanese gagaku – the influence of ambient music is a tacit foundation of his work. Working diligently outside of any established communities for fringe musics, Takami conjures this association through a patient focus on generous musical intervals. Steady, kaleidoscopic unfolding of his compositions reflect Takami’s creative intent to “become aware of precisely the time and place I am living.” The unabashedly sweet, tuneful virtues of his music in concert with this reflective form provide an artistic relief of Takami’s thematic harmony. “Each song is based on birth and death, and moving onto the next stage…”

Tracklist:
1. Felis Catus and Silence (08:51)
2. Garden of Joy (05:42)
3. Awake (04:12)
4. Children on Their Birthdays (02:21)
5. Garden of Light (06:53)
6. Unknown (06:19)
7. Quiet Waters (07:13)

foobar2000 1.5.4 / Dynamic Range Meter 1.1.1
log date: 2021-05-12 20:04:53

––––––––––––––––––––––––––––––––––––––––
Analyzed: Leo Takami / Felis Catus and Silence
––––––––––––––––––––––––––––––––––––––––

DR Peak RMS Duration Track
––––––––––––––––––––––––––––––––––––––––
DR10 -0.52 dB -12.57 dB 8:51 01-Felis Catus and Silence
DR9 -0.52 dB -12.21 dB 5:42 02-Garden of Joy
DR10 -0.52 dB -15.01 dB 4:12 03-Awake
DR14 -0.52 dB -17.78 dB 2:21 04-Children on Their Birthdays
DR11 -0.52 dB -14.85 dB 6:53 05-Garden of Light
DR9 -0.51 dB -10.86 dB 6:19 06-Unknown
DR9 -0.52 dB -13.66 dB 7:13 07-Quiet Waters
––––––––––––––––––––––––––––––––––––––––

Number of tracks: 7
Official DR value: DR10

Samplerate: 44100 Hz
Channels: 2
Bits per sample: 24
Bitrate: 1232 kbps
Codec: FLAC
================================================================================


Thanks to the Original customer!