Tags
Language
Tags

Los Lobos - Native Sons (2021) [Official Digital Download 24/48]

Posted By: delpotro
Los Lobos - Native Sons (2021) [Official Digital Download 24/48]

Los Lobos - Native Sons (2021)
FLAC (tracks) 24-bit/48 kHz | Front Cover | Time - 49:27 minutes | 613 MB
Chicano Rock, Folk Rock, Roots Rock, Heartland Rock | Label: New West Records, Official Digital Download

Los Angeles based band, Los Lobos, have always been inspired by their surroundings and the place they call home. Their music is influenced by rock and roll, Tex-Mex, country, zydeco, folk, R&B, blues, brown-eyed soul, and traditional music such as cumbia, boleros and norteños. With Native Sons the band set out to showcase all of these influences with their own take on the songs of Los Angeles from some of the cities greatest songwriters. Native Sons features 13-songs from well known LA artists such as Buffalo Springfield, WAR, Jackson Browne and the Beach Boys as well as deep cuts from the Jaguars, The Basters and The Premiers. The album title track is the sole original composition written by the band.

Tracklist:
1. Love Special Delivery (02:22)
2. Misery (02:33)
3. Bluebird (03:10)
4. For What It’s Worth (03:28)
5. Los Chucos Suaves (03:24)
6. Jamaica Say You Will (03:16)
7. Never No More (02:36)
8. Native Son (03:10)
9. Farmer John (02:29)
10. Dichoso (03:36)
11. Sail on, Sailor (03:20)
12. The World Is a Ghetto (08:33)
13. Flat Top Joint (02:51)
14. Where Lovers Go (04:32)

foobar2000 1.4.1 / Dynamic Range Meter 1.1.1
log date: 2021-07-27 18:13:46

––––––––––––––––––––––––––––––––––––––––
Analyzed: Los Lobos / Native Sons
––––––––––––––––––––––––––––––––––––––––

DR Peak RMS Duration Track
––––––––––––––––––––––––––––––––––––––––
DR6 -0.28 dB -7.64 dB 2:23 01-Love Special Delivery
DR6 -0.29 dB -8.27 dB 2:34 02-Misery
DR7 -0.29 dB -7.85 dB 3:11 03-Bluebird
DR8 -0.28 dB -10.98 dB 3:29 04-For What It's Worth
DR7 0.00 dB -8.67 dB 3:25 05-Los Chucos Suaves
DR7 -0.23 dB -9.18 dB 3:16 06-Jamaica Say You Will
DR6 -0.25 dB -8.01 dB 2:37 07-Never No More
DR6 -0.21 dB -8.08 dB 3:11 08-Native Son
DR6 -0.19 dB -7.36 dB 2:30 09-Farmer John
DR7 -0.30 dB -8.64 dB 3:36 10-Dichoso
DR6 -0.30 dB -8.04 dB 3:21 11-Sail On, Sailor
DR6 -0.25 dB -8.46 dB 8:33 12-The World Is A Ghetto
DR7 -0.29 dB -8.12 dB 2:51 13-Flat Top Joint
DR6 -0.28 dB -7.79 dB 4:32 14-Where Lovers Go
––––––––––––––––––––––––––––––––––––––––

Number of tracks: 14
Official DR value: DR6

Samplerate: 48000 Hz
Channels: 2
Bits per sample: 24
Bitrate: 1711 kbps
Codec: FLAC
================================================================================


Thanks to the Original customer!