Tags
Language
Tags
December 2022
Su Mo Tu We Th Fr Sa
27 28 29 30 1 2 3
4 5 6 7 8 9 10
11 12 13 14 15 16 17
18 19 20 21 22 23 24
25 26 27 28 29 30 31

Lynyrd Skynyrd - Collected (Vinyl) (2018) [24/bit/192kHz]

Posted By: delpotro
Lynyrd Skynyrd - Collected (Vinyl) (2018) [24/bit/192kHz]

Lynyrd Skynyrd - Collected (Vinyl) (2018)
Vinyl Rip | FLAC (tracks) 24-bit/192 kHz | Front Cover | Time - 96:09 minutes | 3,71 GB
Southern Rock, Classic Rock | Label: Music On Vinyl

Lynyrd Skynyrd Collected focuses on the entire catalogue of the band and besides their well-known songs this record also includes the hidden gems. The American band Lynyrd Skynyrd became famous by popularizing the Southern rock during the '70s. With their signature songs "Free Bird" and "Sweet Home Alabama" they were getting worldwide attention. Their list of impressive songs is endless and are all Collected for this double LP. You'll find classics like "Saturday Night Special" and "Call Me the Breeze" on the album, but also "Need All My Friends" (as Lynard Skynard) and "Don't Ask No Questions". Their breakthrough hit "Sweet Home Alabama" helped them to increase the reach of their guitar driven southern rock sound. It was the first of many hit singles and albums, pushing the band higher on the music stage.

Tracklist:
A1 – Need All My Friends (Shade Tree Demo) (03:18)
A2 – I've Been Your Fool (04:27)
A3 – Free Bird (09:19)
A4 – Tuesday's Gone (07:32)
B1 – Sweet Home Alabama (04:41)
B2 – Don't Ask No Questions (03:31)
B3 – Working For MCA (04:49)
B4 – Call Me The Breeze (05:10)
B5 – Saturday Night Special (05:10)
C1 – Whiskey Rock-A-Roller (04:20)
C2 – Double Trouble (02:51)
C3 – Gimme Back My Bullets (03:30)
C4 – What's Your Name (03:38)
C5 – That Smell (05:48)
C6 – Down South Jukin' (02:15)
D1 – Smokestack Lightning (04:27)
D2 – Good Loving's Hard To Find (03:54)
D3 – Devil In The Bottle (03:35)
D4 – Red White & Blue (05:32)
D5 – Still Unbroken (05:09)
D6 – Last Of A Dyin' Breed (03:52)

foobar2000 1.4.1 / Dynamic Range Meter 1.1.1
log date: 2022-09-12 20:23:47

––––––––––––––––––––––––––––––––––––––––
Analyzed: Lynyrd Skynyrd / Collected
––––––––––––––––––––––––––––––––––––––––

DR Peak RMS Duration Track
––––––––––––––––––––––––––––––––––––––––
DR10 -1.66 dB -14.53 dB 3:17 01-Need All My Friends (Shade Tree Demo)
DR11 -0.24 dB -14.17 dB 4:29 02-I've Been Your Fool
DR11 -1.23 dB -14.32 dB 9:03 03-Free Bird
DR10 -2.52 dB -14.02 dB 7:30 04-Tuesday's Gone
DR11 -0.89 dB -14.07 dB 4:44 05-Sweet Home Alabama
DR11 -2.12 dB -14.41 dB 3:26 06-Don't Ask No Questions
DR11 -1.77 dB -14.39 dB 4:45 07-Working For MCA
DR11 -2.82 dB -14.51 dB 5:09 08-Call Me The Breeze
DR12 -1.98 dB -15.83 dB 5:06 09-Saturday Night Special
DR12 -1.70 dB -15.96 dB 4:16 10-Whiskey Rock-A-Roller
DR13 -1.23 dB -16.66 dB 2:50 11-Double Trouble
DR12 -0.89 dB -14.69 dB 3:29 12-Gimme Back My Bullets
DR12 -2.09 dB -15.50 dB 3:32 13-What's Your Name
DR12 -1.94 dB -15.91 dB 5:49 14-That Smell
DR12 -2.77 dB -16.37 dB 2:13 15-Down South Jukin'
DR12 -1.69 dB -16.47 dB 4:29 16-Smokestack Lightning
DR13 -3.18 dB -17.56 dB 3:56 17-Good Loving's Hard To Find
DR14 -3.08 dB -19.94 dB 3:34 18-Devil In The Bottle
DR10 -4.08 dB -17.06 dB 5:38 19-Red White & Blue
DR12 -3.29 dB -17.54 dB 5:03 20-Still Unbroken
DR12 -3.84 dB -17.40 dB 3:51 21-Last Of A Dyin' Breed
––––––––––––––––––––––––––––––––––––––––

Number of tracks: 21
Official DR value: DR12

Samplerate: 192000 Hz
Channels: 2
Bits per sample: 24
Bitrate: 5439 kbps
Codec: FLAC
================================================================================


Sealed vinyl
Boundless audio cleaning brush
Stanton T.62 Turntable (on a solid marble desk)
Deer hide leather turntable mat
Ortofon 2M Red cartridge
TC-750 Phono Preamp
On-board soundcard (Asus P8Z68-V/Gen3)
Audacity 2.0
iZotope RX6 (delicker/decrackle)
Vinyl Studio Pro

TT>Preamp>Vinyl Studio Pro to 192/24>Import wav into iZotope RX6 to manually delick & decrackle>Import into Audacity to split tracks and export to 192/24 FLAC

Thanks to the Original customer!