M. Ward - End of Amnesia ( RSD 2021 20 Year Anniversary Remaster Vinyl) (2001/2021) [24bit/96kHz]

Posted By: delpotro
M. Ward - End of Amnesia ( RSD 2021 20 Year Anniversary Remaster Vinyl) (2001/2021) [24bit/96kHz]

M. Ward - End of Amnesia ( RSD 2021 20 Year Anniversary Remaster Vinyl) (2001/2021)
Vinyl Rip | FLAC (tracks) 24-bit/96 kHz | Front Cover | Time - 53:26 minutes | 945 MB
Folk | Label: Jealous Butcher Records

20th anniversary remastered reissue of M. Ward's sophomore album. M. Ward's second solo enterprise verifies the artist as one of those few songwriters who stand between the cracks of time, where he spins a hallucinatory, new universe out of old-world roots. Indeed, there's a real down-home, unpolished luster to End of Amnesia, both in execution and in songwriting, that gives it a timeless, old-fashioned pallor. And yet there's also something just slightly off in the songs, a strange, disembodied quality that seems to come at least partly from an ulterior place, be it real or imagined. That attribute is precisely what gives the music such a singular, distinctive sound and vision. Pressed on clear vinyl.

Tracklist:
A1 – End of Amnesia (02:10)
A2 – Color of Water (03:24)
A3 – Half Moon (02:50)
A4 – So Much Water (04:06)
B1 – Bad Dreams (04:17)
B2 – Archangel Tale (03:49)
B3 – Silverline (02:21)
B4 – Flaming Heart (03:54)
C1 – Carolina (04:20)
C2 – From A Pirate Radio Sermon, 1989 (03:21)
C3 – Psalm (03:50)
C4 – Ella (03:37)
D1 – Seashell Tale (03:49)
D2 – O'brien/O'brien's Nocturne (07:45)

foobar2000 1.4.1 / Dynamic Range Meter 1.1.1
log date: 2021-06-23 14:06:12

––––––––––––––––––––––––––––––––––––––––
Analyzed: M. Ward / End of Amnesia
––––––––––––––––––––––––––––––––––––––––

DR Peak RMS Duration Track
––––––––––––––––––––––––––––––––––––––––
DR14 -3.46 dB -21.49 dB 2:07 01-End of Amnesia
DR11 -2.48 dB -17.21 dB 3:25 02-Color of Water
DR12 -0.99 dB -16.21 dB 2:49 03-Half Moon
DR13 -2.93 dB -19.97 dB 4:08 04-So Much Water
DR11 -1.16 dB -16.63 dB 4:16 05-Bad Dreams
DR12 -1.63 dB -17.06 dB 3:49 06-Archangel Tale
DR10 -2.25 dB -15.30 dB 2:21 07-Silverline
DR12 -1.32 dB -16.54 dB 3:54 08-Flaming Heart
DR12 -2.66 dB -18.70 dB 4:20 09-Carolina
DR11 -1.00 dB -16.10 dB 3:21 10-From A Pirate Radio Sermon, 1989
DR13 -2.93 dB -20.48 dB 3:50 11-Psalm
DR15 -1.00 dB -22.28 dB 3:34 12-Ella
DR13 -4.18 dB -21.23 dB 3:49 13-Seashell Tale
DR12 -1.43 dB -19.30 dB 7:42 14-O'brien/O'brien's Nocturne
––––––––––––––––––––––––––––––––––––––––

Number of tracks: 14
Official DR value: DR12

Samplerate: 96000 Hz
Channels: 2
Bits per sample: 24
Bitrate: 2340 kbps
Codec: FLAC
================================================================================


Cleaned with a Record Doctor V system.

Turntable: Technics SL-1500c
Cartridge: Orotofon Bronze
Phone Stage: Built-in Tecnhnics Phono
Digital Interface: Focusrite Audio Interface 2i2
Recording Software: Audacity
Recording Bitrate/Sample Rate: 192/24
Exported to 32 bit float WAV


Post Processing
Run thru ClickRepair at level 10 with
Pitch Protection | on
Reverse | on
Wavelet | x2
Run thru ClickRepair again level 10 with
Pitch Protection | on
Reverse | off
Wavelet | x2

Thanks to the Original customer!