Malin Byström & Helsingborg Symphony Orchestra - Orchestral Songs (2019) [Official Digital Download]

Posted By: El Misha
Malin Byström & Helsingborg Symphony Orchestra - Orchestral Songs (2019) [Official Digital Download]

Malin Byström & Helsingborg Symphony Orchestra - Orchestral Songs (2019)
FLAC (tracks) 24-bit/48 kHz | Time - 51:07 | 519 MB
Studio Master, Official Digital Download | Artwork: Front cover

Malin Byström is a Swedish soprano, trained at the University College of Opera in Stockholm. She has been coached by Jonathan Morris since 1997 and collaborates with him, still to this day. In 2016 Malin Byström received the Litteris et Artibus medal and in 2018 she was appointed Hovsågerska (Court Singer) by H.M. the King. She was named Female Singer of the Year in the 2018 International Opera Awards. This is Malin's debut album (solo) with orchestral songs by Ture Rangström, Austrian Alban Berg and Duparc. Recorded(2019) together with HSO under the direction of the chief conductor Stefan Solyom.



Tracklist:

01. Sieben frühe Lieder: I. Nacht
02. Sieben frühe Lieder: II. Schilflied
03. Sieben frühe Lieder: III. Die Nachtigall
04. Sieben frühe Lieder: IV. Traumgekrönt
05. Sieben frühe Lieder: V. Im Zimmer
06. Sieben frühe Lieder: VI. Liebesode
07. Sieben frühe Lieder: VII. Sommertage
08. Orchestral Songs: I. Au pays où se fait la guerre
09. Orchestral Songs: II. Chanson triste
10. Orchestral Songs: III. Le manoir de Rosemonde
11. Orchestral Songs: IV. La vie antérieure
12. Orchestral Songs: V. Extase
13. Orchestral Songs: VI. L’invitation au voyage
14. Orchestral Songs: I. Den mörka blomman
15. Orchestral Songs: II. Sköldmön
16. Orchestral Songs: III. Melodi
17. Orchestral Songs: IV. Vingar i natten
18. Orchestral Songs: V. Vinden och trädet
19. Orchestral Songs: VI. Bön till natten

foobar2000 1.4 / Dynamic Range Meter 1.1.1
log date: 2021-01-14 11:54:11

––––––––––––––––––––––––––––––––––––––––
Analyzed: Malin Byström / Orchestral Songs
––––––––––––––––––––––––––––––––––––––––

DR Peak RMS Duration Track
––––––––––––––––––––––––––––––––––––––––
DR13 -0.74 dB -19.52 dB 4:07 01-Sieben frühe Lieder: I. Nacht
DR12 -3.82 dB -20.04 dB 2:06 02-Sieben frühe Lieder: II. Schilflied
DR10 -0.73 dB -16.39 dB 2:07 03-Sieben frühe Lieder: III. Die Nachtigall
DR11 -2.75 dB -18.95 dB 2:19 04-Sieben frühe Lieder: IV. Traumgekrönt
DR12 -3.41 dB -20.59 dB 1:22 05-Sieben frühe Lieder: V. Im Zimmer
DR12 -0.74 dB -17.30 dB 1:46 06-Sieben frühe Lieder: VI. Liebesode
DR9 -0.73 dB -14.68 dB 1:59 07-Sieben frühe Lieder: VII. Sommertage
DR12 -0.74 dB -18.02 dB 5:20 08-Orchestral Songs: I. Au pays où se fait la guerre
DR13 -0.74 dB -18.23 dB 3:18 09-Orchestral Songs: II. Chanson triste
DR9 -0.72 dB -15.03 dB 2:52 10-Orchestral Songs: III. Le manoir de Rosemonde
DR12 -0.72 dB -18.06 dB 4:22 11-Orchestral Songs: IV. La vie antérieure
DR13 -1.25 dB -18.99 dB 3:01 12-Orchestral Songs: V. Extase
DR13 -0.74 dB -19.43 dB 4:35 13-Orchestral Songs: VI. L’invitation au voyage
DR12 -0.74 dB -17.93 dB 2:01 14-Orchestral Songs: I. Den mörka blomman
DR9 -0.73 dB -13.69 dB 2:24 15-Orchestral Songs: II. Sköldmön
DR13 -0.74 dB -18.81 dB 1:43 16-Orchestral Songs: III. Melodi
DR8 -0.73 dB -11.90 dB 1:23 17-Orchestral Songs: IV. Vingar i natten
DR13 -3.94 dB -20.61 dB 1:49 18-Orchestral Songs: V. Vinden och trädet
DR14 -2.08 dB -22.15 dB 2:41 19-Orchestral Songs: VI. Bön till natten
––––––––––––––––––––––––––––––––––––––––

Number of tracks: 19
Official DR value: DR12

Samplerate: 48000 Hz
Channels: 2
Bits per sample: 24
Bitrate: 1337 kbps
Codec: FLAC
================================================================================



Thanks to the Original customer!