Marc Bolan & T. Rex - Star King (Remastered) (2021) [Official Digital Download]

Posted By: delpotro
Marc Bolan & T. Rex - Star King (Remastered) (2021) [Official Digital Download]

Marc Bolan & T. Rex - Star King (Remastered) (2021)
FLAC (tracks) 24-bit/44,1 kHz | Front Cover | Time - 46:11 minutes | 521 MB
Psychedelic Rock, Glam Rock, Pop Rock | Label: Edsel Records, Official Digital Download

Following the success of previous RSD releases Bump ‘n’ Grind and Shadowland, Star King compiles more very rare ‘working’ and ‘master’ versions of T. Rex favourites, including a 12 minute jam of Children Of The Revolution, and one previously unreleased track. All are taken from original master tapes, and all appear on vinyl for the first time.

Tracklist:
1. Born to Boogie (Working Version) (02:44)
2. Dreamy Lady (Re-Record for Tv Performances) (03:03)
3. The Groover (Demo) (03:24)
4. Blackjack (Earlier Master Version) (03:18)
5. Children of the Revolution (Jam/Working Version) (12:24)
6. Baby Boomerang (1974 Working Version) (04:04)
7. Big Black Cat (Master Version) (03:44)
8. Groove a Little (Working Version) (06:28)
9. Squint Eye Mangle (Rough Mix) (03:40)
10. Christmas Bop (Master Version) (03:16)

foobar2000 1.4.1 / Dynamic Range Meter 1.1.1
log date: 2021-06-11 11:48:06

––––––––––––––––––––––––––––––––––––––––
Analyzed: Marc Bolan & T. Rex / Star King
––––––––––––––––––––––––––––––––––––––––

DR Peak RMS Duration Track
––––––––––––––––––––––––––––––––––––––––
DR9 -1.30 dB -12.59 dB 2:44 01-Born to Boogie (Working Version)
DR6 -0.50 dB -9.89 dB 3:04 02-Dreamy Lady (Re-Record for Tv Performances)
DR8 -1.57 dB -11.68 dB 3:25 03-The Groover (Demo)
DR8 -1.19 dB -10.50 dB 3:18 04-Blackjack (Earlier Master Version)
DR11 -0.50 dB -13.76 dB 12:25 05-Children of the Revolution (Jam/Working Version)
DR12 -0.50 dB -13.65 dB 4:05 06-Baby Boomerang (1974 Working Version)
DR8 -1.97 dB -11.92 dB 3:45 07-Big Black Cat (Master Version)
DR8 -0.50 dB -10.83 dB 6:29 08-Groove a Little (Working Version)
DR8 -0.50 dB -10.58 dB 3:41 09-Squint Eye Mangle (Rough Mix)
DR11 -0.50 dB -12.46 dB 3:17 10-Christmas Bop (Master Version)
––––––––––––––––––––––––––––––––––––––––

Number of tracks: 10
Official DR value: DR9

Samplerate: 44100 Hz
Channels: 2
Bits per sample: 24
Bitrate: 1732 kbps
Codec: FLAC
================================================================================


Thanks to the Original customer!