Mark Collie - Book of My Blues (2021) [Official Digital Download]

Posted By: El Misha
Mark Collie - Book of My Blues (2021) [Official Digital Download]

Mark Collie - Book of My Blues (2021)
FLAC (tracks) 24-bit/44.10 kHz | Time - 49:53 | 583 MB
Studio Master, Official Digital Download | Artwork: Front cover

Mark Collie presents the adventures of the Rockabilly Hitman in - "Book Of My Blues", a ground-breaking multi-media Graphic Album. This smokey fifteen song project chronicles the tale of Jessie Wayne Har- din aka the "Rockabilly Hit-man". The audience joins this journey of misadventure as Hardin balances the moral scales of good and evil in the service of rock and roll. Accompanying this revolutionary album is a three chapter graphic novel with the original story by Mark Collie and Jonathon Hensleigh (Armageddon, The Punisher) and written by Hensleigh. The story of the Book of My Blues springs to life through music and graphic images in what is sure to become a collector's classic.



Tracklist:

1. Book of My Blues (3:29)
2. Born Ready (2:55)
3. Wings of Your Love (3:31)
4. Right This Wrong (4:27)
5. Matchbox (1:48)
6. Holly Springs (3:46)
7. Unfinished Hurting (3:10)
8. Queen of a Hungry Heart (The Wager) (4:18)
9. Sinking Sand (4:14)
10. Hey Boba Lou (3:16)
11. Put the Gun Down (2:55)
12. Walk the Floor, Kill the Lights, Slam the Door (3:01)
13. A Little Everyday (3:02)
14. The Son of a Gun (3:43)
15. Night Train to Memphis (2:22)

foobar2000 1.4 / Dynamic Range Meter 1.1.1
log date: 2021-06-08 05:20:31

––––––––––––––––––––––––––––––––––––––––
Analyzed: Mark Collie / Book of My Blues
––––––––––––––––––––––––––––––––––––––––

DR Peak RMS Duration Track
––––––––––––––––––––––––––––––––––––––––
DR7 -0.85 dB -8.47 dB 3:29 01-Book of My Blues
DR5 -0.10 dB -7.50 dB 2:55 02-Born Ready
DR6 -0.43 dB -8.38 dB 3:31 03-Wings of Your Love
DR6 -0.48 dB -8.02 dB 4:27 04-Right This Wrong
DR6 -0.68 dB -7.52 dB 1:48 05-Matchbox
DR6 -0.52 dB -8.08 dB 3:46 06-Holly Springs
DR6 -0.68 dB -7.95 dB 3:10 07-Unfinished Hurting
DR6 -0.57 dB -8.14 dB 4:18 08-Queen of a Hungry Heart (The Wager)
DR6 -0.56 dB -7.76 dB 4:14 09-Sinking Sand
DR6 -0.70 dB -7.83 dB 3:16 10-Hey Boba Lou
DR5 -0.42 dB -7.60 dB 2:55 11-Put the Gun Down
DR7 -0.56 dB -8.35 dB 3:01 12-Walk the Floor, Kill the Lights, Slam the Door
DR7 -0.64 dB -8.35 dB 3:02 13-A Little Everyday
DR5 -0.74 dB -7.32 dB 3:43 14-The Son of a Gun
DR9 -0.78 dB -13.34 dB 2:22 15-Night Train to Memphis
––––––––––––––––––––––––––––––––––––––––

Number of tracks: 15
Official DR value: DR6

Samplerate: 44100 Hz
Channels: 2
Bits per sample: 24
Bitrate: 1347 kbps
Codec: FLAC
================================================================================



Thanks to the Original customer!