Marvin Gaye - What's Going On (1971/2012) [Official Digital Download 24/192]

Posted By: El Misha
Marvin Gaye - What's Going On (1971/2012) [Official Digital Download 24/192]

Marvin Gaye - What's Going On (1971/2012)
FLAC (tracks) 24-bit/192 kHz | Time - 58:42 | 1.64 GB
Studio Master, Official Digital Download | Artwork: Front cover+digital booklet

Marvin Gaye’s "What's Going On" was a landmark recording and is considered one of the greatest albums ever made. Rolling Stone named it Album Of The Year when it came out and, in 2003, it was ranked number 6, the highest for a non-rock album, in Rolling Stone’s 500 Greatest Albums Of All Time.



Tracklist:

1 What's Going On 3:53
2 What's Happening Brother 2:43
3 Flyin' High (In The Friendly Sky) 3:49
4 Save The Children 4:03
5 God Is Love 1:41
6 Mercy Mercy Me (The Ecology) 3:16
7 Right On 7:32
8 Wholy Holy 3:07
9 Inner City Blues (Make Me Wanna Holler) 5:33
10 God Is Love (Mono - Single Version) 2:50
11 Sad Tomorrows (Single Version) 2:22
12 What's Going On (Mono - Single Version) 3:53

foobar2000 1.4 / Dynamic Range Meter 1.1.1
log date: 2021-01-08 17:43:44

––––––––––––––––––––––––––––––––––––––––
Analyzed: Marvin Gaye / What's Going On
––––––––––––––––––––––––––––––––––––––––

DR Peak RMS Duration Track
––––––––––––––––––––––––––––––––––––––––
DR12 -2.72 dB -16.31 dB 3:53 01-What's Going On
DR11 -1.43 dB -16.01 dB 2:44 02-What's Happening Brother
DR11 -2.16 dB -15.63 dB 3:49 03-Flyin' High (In The Friendly Sky)
DR12 -1.07 dB -15.99 dB 4:03 04-Save The Children
DR11 -3.75 dB -15.66 dB 1:42 05-God Is Love
DR12 -2.44 dB -16.36 dB 3:16 06-Mercy Mercy Me (The Ecology)
DR14 -0.73 dB -16.48 dB 7:31 07-Right On
DR12 -3.61 dB -19.16 dB 3:08 08-Wholy Holy
DR14 -1.88 dB -17.65 dB 5:30 09-Inner City Blues (Make Me Wanna Holler)
DR10 -3.10 dB -15.38 dB 2:51 10-God Is Love (Mono - Single Version)
DR13 -0.52 dB -16.39 dB 2:25 11-Sad Tomorrows (Single Version)
DR14 -1.17 dB -16.50 dB 3:54 12-What's Going On (Mono - Single Version)
––––––––––––––––––––––––––––––––––––––––

Number of tracks: 12
Official DR value: DR12

Samplerate: 192000 Hz
Channels: 2
Bits per sample: 24
Bitrate: 2755 kbps
Codec: FLAC
================================================================================



Thanks to the Original customer!