Tags
Language
Tags

Mischa Blanos - City Jungle (2021) [Official Digital Download 24/48]

Posted By: delpotro
Mischa Blanos - City Jungle (2021) [Official Digital Download 24/48]

Mischa Blanos - City Jungle (2021)
FLAC (tracks) 24-bit/48 kHz | Front Cover | Time - 42:56 minutes | 442 MB
Modern Classical | Label: InFiné, Official Digital Download

“The city is an untamed beast, and we are creating it one cell at a time” (Mischa Blanos)

Attuning between two music worlds, clubbing and concert halls, Mischa Blanos is set to instill his own view on the well sought-after alliance between classical and electronic music.

Renowned as an exhilarating solo live performer, Mischa Blanos makes the piano his own on his second album “City Jungle”, using it as rhythmic element, organic groove or drowned in noise, perfectly interplaying with free flowing, polyrhythmic percussion and morphing synths, to create his own unique musical force.

From his early education through the release of two EPs, 'Second Nature´ (2018) and ‘Indoors´ (2019), to the creation of City Jungle, Blanos has lived in various cities around the world and travelled through many others. Each city held "a unique atmosphere and pressure" as Blanos describes it, “each of them with new rules to follow and different rhythms to attune to.”

Sometimes traveling alone, Mischa Blanos was able to dissolve into the crowd - to be an outsider exploring the depths of the huge, pulsing city organism. Often he was traveling with fellow countrymen Cristi Cons and Vlad Caia, performing as one third of the influential ‘Ro-minimal’ techno outfit Amorf, bringing his unique groove and musicality to their live shows at the world’s most famous clubs such as Fabric, Rex Club, The Block, Gazgolder and festivals such as ADE, Caprice and Sunwaves. Taking in new musical and social influences, a new part of the artist within Blanos was growing: the need not just to perform on the piano, but to finally make it his own.

We travel with Blanos from interconnectivity, globalism, humanity - all the way to isolation, reflection, emptiness and bliss. City Jungle is an extensive exploration of all aspects of the modern age, but it is also a very personal one, conceived because the artist was forced to stand still and come face to face with himself. The result is, as always with Blanos, truly unique.

Tracklist:
1. Silicon Road (04:36)
2. Tiptoe (03:24)
3. Audition at 9 (03:41)
4. City Jungle (05:32)
5. Fluorescence (03:05)
6. Crystal (04:56)
7. Innervision (04:03)
8. Steppe (03:57)
9. The Aerie (05:53)
10. On Cue (03:45)

foobar2000 1.4.1 / Dynamic Range Meter 1.1.1
log date: 2021-05-19 14:43:27

––––––––––––––––––––––––––––––––––––––––
Analyzed: Mischa Blanos / City Jungle
––––––––––––––––––––––––––––––––––––––––

DR Peak RMS Duration Track
––––––––––––––––––––––––––––––––––––––––
DR7 -0.17 dB -8.90 dB 4:36 01-Blanos: Silicon Road
DR9 -0.20 dB -12.48 dB 3:25 02-Blanos: Tiptoe
DR7 -0.17 dB -8.88 dB 3:42 03-Blanos: Audition at 9
DR7 -0.17 dB -9.20 dB 5:32 04-Blanos: City Jungle
DR8 -0.17 dB -11.66 dB 3:05 05-Blanos: Fluorescence
DR10 -0.20 dB -13.94 dB 4:57 06-Blanos: Crystal
DR6 -0.17 dB -10.09 dB 4:04 07-Blanos: Innervision
DR11 -0.20 dB -13.46 dB 3:57 08-Blanos: Steppe
DR8 -0.17 dB -10.76 dB 5:53 09-Blanos: The Aerie
DR10 -0.20 dB -15.15 dB 3:45 10-Blanos: On Cue
––––––––––––––––––––––––––––––––––––––––

Number of tracks: 10
Official DR value: DR8

Samplerate: 48000 Hz
Channels: 2
Bits per sample: 24
Bitrate: 1326 kbps
Codec: FLAC
================================================================================


Thanks to the Original customer!