Tags
Language
Tags

Mötley Crüe - Theatre Of Pain (40th Anniversary Remastered Edition) (1985/2021) [Official Digital Download 24/96]

Posted By: delpotro
Mötley Crüe - Theatre Of Pain (40th Anniversary Remastered Edition) (1985/2021) [Official Digital Download 24/96]

Mötley Crüe - Theatre Of Pain (40th Anniversary Remastered) Edition (1985/2021)
FLAC (tracks) 24-bit/96 kHz | Front Cover | Time - 35:43 minutes | 803 MB
Hard Rock, Heavy Metal, Glam Metal | Label: Mötley Records, Official Digital Download

Motley Crue will release a remastered digital version of their 1985 album, "Theatre Of Pain", on June 25 as part of the group's 40th anniversary celebrations.

Led by a cover of the Brownsville Station classic, "Smokin' In The Boys Room", the band's third studio album - which also featured the hit ballad "Home Sweet Home" - reached No. 6 on the US Billboard 200 and went on to sell more than 4 million copies in the country.

Tracklist:
1. City Boy Blues (04:09)
2. Smokin' In the Boys Room (03:28)
3. Louder Than Hell (02:32)
4. Keep Your Eye On the Money (04:39)
5. Home Sweet Home (03:58)
6. Tonight (We Need a Lover) (03:37)
7. Use It or Lose It (02:38)
8. Save Our Souls (04:12)
9. Raise Your Hands to Rock (02:48)
10. Fight for Your Rights (03:49)

foobar2000 1.4.1 / Dynamic Range Meter 1.1.1
log date: 2021-06-24 20:07:30

––––––––––––––––––––––––––––––––––––––––
Analyzed: Mötley Crüe / Theatre of Pain
––––––––––––––––––––––––––––––––––––––––

DR Peak RMS Duration Track
––––––––––––––––––––––––––––––––––––––––
DR7 -0.21 dB -8.88 dB 4:08 01-City Boy Blues
DR6 -0.21 dB -7.34 dB 3:27 02-Smokin' In The Boys Room
DR6 -0.21 dB -7.76 dB 2:32 03-Louder Than Hell
DR7 -0.21 dB -8.95 dB 4:38 04-Keep Your Eyes On The Money
DR7 -0.21 dB -9.47 dB 3:59 05-Home Sweet Home
DR6 -0.21 dB -7.82 dB 3:36 06-Tonight (We Need A Lover)
DR6 -0.21 dB -7.05 dB 2:38 07-Use It Or Lose It
DR6 -0.21 dB -7.59 dB 4:12 08-Save Our Souls
DR6 -0.21 dB -8.47 dB 2:47 09-Raise Your Hands To Rock
DR6 -0.21 dB -6.98 dB 3:47 10-Fight For Your Rights
––––––––––––––––––––––––––––––––––––––––

Number of tracks: 10
Official DR value: DR6

Samplerate: 96000 Hz
Channels: 2
Bits per sample: 24
Bitrate: 3158 kbps
Codec: FLAC
================================================================================


Thanks to the Original customer!