Tags
Language
Tags

Natalia Lafourcade - Un Canto por México, Vol. 1 (2020) [Official Digital Download 24/48]

Posted By: delpotro
Natalia Lafourcade - Un Canto por México, Vol. 1 (2020) [Official Digital Download 24/48]

Natalia Lafourcade - Un Canto por México, Vol. 1 (2020)
FLAC (tracks) 24-bit/48 kHz | Front Cover | Time - 63:06 minutes | 757 MB
Pop, Folk, Latin, Female Vocal | Label: Sony Music, Official Digital Download

Un Canto por México, Vol. 1 (English: "A Song for México, Volume 1"), is the ninth studio album by Mexican recording artist Natalia Lafourcade, based on a concert made on November 4, 2019 called Un canto por México para la reconstrucción del Centro de Documentación del Son Jarocho . It was released on May 8, 2020.

At the 21st Annual Latin Grammy Awards in 2020, Lafourcade won three awards, Best Alternative Song for "En Cantos" with ILe and Ismael Cancel, Best Regional Mexican Song for "Mi Religión" and Album of the Year for the album, becoming the third woman to win this award as the main artist, after Shakira won for Fijación Oral Vol. 1 in 2006 and Rosalía won for El Mal Querer in 2019. Also, the album won Best Regional Mexican Music Album (including Tejano) at the 63rd Annual Grammy Awards, being her second Grammy after winning Best Latin Rock or Alternative Album for Hasta la Raíz in 2016.

Tracklist:
1. Natalia Lafourcade & Los Cojolites – El Balajú / Serenata Huasteca (04:28)
2. Natalia Lafourcade & Carlos Rivera – Mexicana Hermosa (04:12)
3. Natalia Lafourcade – Veracruz (04:03)
4. Natalia Lafourcade – Una Vida (04:21)
5. Natalia Lafourcade, Los Cojolites & Los Auténticos Decadentes – Hasta la Raíz (04:32)
6. Natalia Lafourcade & Leonel García – Ya No Vivo por Vivir (06:09)
7. Natalia Lafourcade – Mi Religión (03:35)
8. Natalia Lafourcade & Jorge Drexler – Para Qué Sufrir (03:46)
9. Natalia Lafourcade – Nunca Es Suficiente (04:20)
10. Natalia Lafourcade & Los Cojolites – Sembrando Flores (04:45)
11. Natalia Lafourcade & Meme (Emmanuel Del Real) – Lo Que Construimos (04:06)
12. Natalia Lafourcade & Panteón Rococó – Un Derecho de Nacimiento (05:21)
13. Natalia Lafourcade & Los Cojolites – Mi Tierra Veracruzana (04:11)
14. Natalia Lafourcade – Cucurrucucú Paloma (05:11)

foobar2000 1.4.1 / Dynamic Range Meter 1.1.1
log date: 2021-07-10 18:16:36

––––––––––––––––––––––––––––––––––––––––
Analyzed: Natalia Lafourcade / Un Canto por México, Vol. 1
––––––––––––––––––––––––––––––––––––––––

DR Peak RMS Duration Track
––––––––––––––––––––––––––––––––––––––––
DR6 -0.21 dB -9.09 dB 4:29 01-El Balajú / Serenata Huasteca
DR7 -0.21 dB -10.07 dB 4:12 02-Mexicana Hermosa
DR7 -0.21 dB -10.69 dB 4:03 03-Veracruz
DR7 -0.21 dB -9.12 dB 4:22 04-Una Vida
DR6 -0.21 dB -8.67 dB 4:32 05-Hasta la Raíz
DR7 -0.21 dB -9.31 dB 6:10 06-Ya No Vivo por Vivir
DR7 -0.21 dB -8.92 dB 3:36 07-Mi Religión
DR8 -0.21 dB -9.59 dB 3:46 08-Para Qué Sufrir
DR7 -0.21 dB -8.39 dB 4:21 09-Nunca Es Suficiente
DR7 -0.21 dB -9.41 dB 4:46 10-Sembrando Flores
DR7 -0.21 dB -8.89 dB 4:06 11-Lo Que Construimos
DR7 -0.21 dB -10.08 dB 5:21 12-Un Derecho de Nacimiento
DR7 -0.21 dB -10.54 dB 4:12 13-Mi Tierra Veracruzana
DR9 -0.21 dB -13.80 dB 5:11 14-Cucurrucucú Paloma
––––––––––––––––––––––––––––––––––––––––

Number of tracks: 14
Official DR value: DR7

Samplerate: 48000 Hz
Channels: 2
Bits per sample: 24
Bitrate: 1417 kbps
Codec: FLAC
================================================================================


Thanks to the Original customer!