New York Disco Orchestra - Reverie (1978/2021) [Official Digital Download]

Posted By: El Misha
New York Disco Orchestra - Reverie (1978/2021) [Official Digital Download]

New York Disco Orchestra - Reverie (1978/2021)
FLAC (tracks) 24-bit/44.10 kHz | Time - 42:55 | 499 MB
Studio Master, Official Digital Download | Artwork: Front cover

A very rare band with quality music. Enjoy!



Tracklist:

01. New York Disco Orchestra - Reverie
02. New York Disco Orchestra - Get It up and Dance
03. New York Disco Orchestra - It's True
04. New York Disco Orchestra - The Way We Were / Version / Love in Motion
05. New York Disco Orchestra - Untitled

foobar2000 1.4 / Dynamic Range Meter 1.1.1
log date: 2021-01-13 21:59:41

––––––––––––––––––––––––––––––––––––––––
Analyzed: New York Disco Orchestra / Reverie
––––––––––––––––––––––––––––––––––––––––

DR Peak RMS Duration Track
––––––––––––––––––––––––––––––––––––––––
DR13 -0.15 dB -14.76 dB 7:28 01-Reverie
DR13 -0.15 dB -14.67 dB 7:43 02-Get It up and Dance
DR13 -0.15 dB -15.27 dB 8:46 03-It's True
DR14 -0.15 dB -15.90 dB 12:31 04-The Way We Were / Version / Love in Motion
DR13 -0.15 dB -15.63 dB 6:30 05-Untitled
––––––––––––––––––––––––––––––––––––––––

Number of tracks: 5
Official DR value: DR13

Samplerate: 44100 Hz
Channels: 2
Bits per sample: 24
Bitrate: 1504 kbps
Codec: FLAC
================================================================================



Thanks to the Original customer!