Tags
Language
Tags
November 2022
Su Mo Tu We Th Fr Sa
30 31 1 2 3 4 5
6 7 8 9 10 11 12
13 14 15 16 17 18 19
20 21 22 23 24 25 26
27 28 29 30 1 2 3

Nonlocal Forecast - Holographic Universe(s?)! (2020) [Official Digital Download]

Posted By: delpotro
Nonlocal Forecast - Holographic Universe(s?)! (2020) [Official Digital Download]

Nonlocal Forecast - Holographic Universe(s?)! (2020)
FLAC (tracks) 24-bit/44,1 kHz | Front Cover | Time - 41:52 minutes | 457 MB
New Age | Label: Hausu Mountain, Official Digital Download

Angel Marcloid’s recordings as Nonlocal Forecast focus the trajectory of a vast catalog squarely in the realm of retro Weather Channel-inspired smooth jazz fusion, intricate prog, and expansive new age experiments.

Trading off a measure of the typically overloaded compositional style found in other projects to favor lush atmospheres and relatively pared down arrangements, Marcloid populates Nonlocal Forecast pieces with progressive keyboard and synth harmonies, complex drum programming, and majestic leads performed on guitar, keyboards, and guests’ saxophones.

Tracklist:
1. First Concrete Realization (02:19)
2. The Missing Link Is Extremely Nonlocal, Extremely Scrambled (01:07)
3. Imprinted, Encoded, Shone (Emergence) (03:58)
4. Interactions Between Brains & The Foam Of Potentiality (06:10)
5. Extended To Disparate Fields (03:47)
6. The Bubbling Up Of Duality On An Autumn Night By A Forest Stream (05:16)
7. We're Smeared Across A 2D Surface (Part 1) (01:27)
8. My Big T.O.E. (02:50)
9. We're Smeared Across A 2D Surface (Part 0) (03:43)
10. We're Smeared Across A 2D Surface (Part -1) (02:21)
11. Space-Time = Infinity-Eternity Objectified (06:08)
12. My Incomplete T.O.E. (feat. Fire-Toolz) (02:47)

foobar2000 1.4.1 / Dynamic Range Meter 1.1.1
log date: 2020-11-16 14:00:44

––––––––––––––––––––––––––––––––––––––––
Analyzed: Nonlocal Forecast / Holographic Universe(s?)!
––––––––––––––––––––––––––––––––––––––––

DR Peak RMS Duration Track
––––––––––––––––––––––––––––––––––––––––
DR7 -1.05 dB -12.03 dB 2:19 01-First Concrete Realization
DR5 -1.05 dB -7.36 dB 1:07 02-The Missing Link Is Extremely Nonlocal, Extremely Scrambled
DR6 -1.05 dB -10.13 dB 3:58 03-Imprinted, Encoded, Shone (Emergence)
DR7 -1.05 dB -10.05 dB 6:10 04-Interactions Between Brains & The Foam Of Potentiality
DR7 -1.05 dB -9.83 dB 3:47 05-Extended To Disparate Fields
DR7 -1.05 dB -11.40 dB 5:16 06-The Bubbling Up Of Duality On An Autumn Night By A Forest Stream
DR6 -1.05 dB -10.12 dB 1:27 07-We're Smeared Across A 2D Surface (Part 1)
DR7 -1.05 dB -9.58 dB 2:50 08-My Big T.O.E.
DR6 -1.05 dB -9.81 dB 3:43 09-We're Smeared Across A 2D Surface (Part 0)
DR9 -1.05 dB -13.20 dB 2:21 10-We're Smeared Across A 2D Surface (Part -1)
DR6 -1.05 dB -9.28 dB 6:08 11-Space-Time = Infinity-Eternity Objectified
DR6 -1.05 dB -8.88 dB 2:47 12-My Incomplete T.O.E.
––––––––––––––––––––––––––––––––––––––––

Number of tracks: 12
Official DR value: DR7

Samplerate: 44100 Hz
Channels: 2
Bits per sample: 24
Bitrate: 1645 kbps
Codec: FLAC
================================================================================


Thanks to the Original customer!