Norbert Nagel - Lieblingslieder (2019) [Official Digital Download]

Posted By: shamanicus
Norbert Nagel - Lieblingslieder (2019) [Official Digital Download]

Norbert Nagel - Lieblingslieder (2019)
FLAC (tracks) 24-bit/44,1 kHz | Artwork: front cover | 41:24 | 450 mb
Jazz | Label: Rosenau Records

Sting, Paul McCartney, Johann Sebastian Bach, Michel Legrand, Gilbert O’Sullivan, Astor Piazzolla, die Bee Gees und Glenn Miller…sie alle vereint der Saxofonist und Klarinettist Norbert Nagel auf seinem neuen Album "Lieblingslieder". Und verbindet mit dieser persönlichen Auswahl seiner Lieblingsstücke überaus stimmig und in einem Atemzug ganze Musikuniversen. World, Jazz, Pop, Klassik. Schwerelos, intim, geheimnisvoll, voller kleiner Geschichten und Anekdoten, die es zu entdecken gibt, so klingen Norbert Nagels Bearbeitungen bekannter Klassiker wie "Fragile", "Blackbird" oder "How Deep Is Your Love".

Der 1961 geborene Wahlberliner ist frei von Scheuklappen, musikalische Grenzen existieren für ihn nicht: „Mein Interesse galt immer allen Spielarten der Musik, meine Neugier hat mich immer wieder zu anderen Genres, aber auch zu neuen Klängen und Menschen geführt…“ So ist der vielgefragte Musiker mittlerweile auf mehr als 200 Tonträgern zu hören, unter anderem bei Hans Zimmer´s "Das Geisterhaus" und Lou Bega´s "Mambo Nr. 5". Nagel arbeitet mit dem Deutschen Symphonie-Orchester Berlin, der Bayerischen Staatsoper München, den Berliner und Münchner Philharmonikern unter der Leitung von Dirigenten wie Kirill Petrenko, Valery Gergiev, Sir Simon Rattle oder Zubin Mehta. Auf der Bühne spielte er mit internationalen Größen wie Till Brönner, Dominic Miller, Caterina Valente oder Al Martino.


Er gewann zahlreiche Preise: beim ARD Musikwettbewerb, bei Kammermusikwettbe-werben in Japan und Italien, sowie der Bayerischen Akademie der Schönen Künste. Als langjähriger Begleiter und Produzent von Sängern wie Angela Denoke, Konstantin Wecker oder dem Wiener Tom Haydn, heimste Nagel für seine Werke den Troubadour-Preis ein. Seine persönlichen Lieblingslieder stammen somit verständlicher-weise aus den unter-schiedlichsten Genres und Musikrichtungen. Selten lässt sich Musik als universale Sprache besser begreifen, als wenn man Norbert Nagel durch seine persönlichen Geheimtipps begleitet.


Tracklist:

01. Fragil (Sting)
02. C-Moll (J.S. Bach)
03. Deep Love (Bee Gees)
04. Nani part 2 (Norbert Nagel)
05. Rabenvögel (Paul McCartney/John Lennon)
06. Wind (Michel Legrand)
07. Claire (Gilbert O'Sullivan)
08. Your Face (Paul McCartney/John Lennon)
09. Contra (A. Piazzolla)
10. G-Moll (J.S. Bach)
11. Karibik (Norbert Nagel)
12. Mondlicht (Glenn Miller)


Besetzung:
Norbert Nagel - Saxofon, Klarinette, Klavier
Andreas Blüml - Gitarre
Klaus Sebastian Klose - Kontrabass
Norbert Gabla - Bandoneon
Konstantin Ischenko - Akkord



foobar2000 1.3.7 / Dynamic Range Meter 1.1.1
log date: 2019-11-19 18:57:30

––––––––––––––––––––––––––––––––––––––––
Analyzed: Norbert Nagel / Lieblingslieder
––––––––––––––––––––––––––––––––––––––––

DR Peak RMS Duration Track
––––––––––––––––––––––––––––––––––––––––
DR7 -0.20 dB -10.62 dB 4:24 01-Fragil
DR6 -0.19 dB -9.38 dB 3:52 02-C-Moll
DR11 -0.20 dB -14.73 dB 4:05 03-Deep Love
DR10 -0.20 dB -11.61 dB 3:58 04-Nani Pt.2
DR10 -0.13 dB -13.37 dB 2:16 05-Rabenvögel
DR10 -1.00 dB -15.79 dB 4:45 06-Wind
DR8 -0.20 dB -10.68 dB 2:40 07-Claire
DR9 -0.20 dB -10.64 dB 2:23 08-Your Face
DR10 -0.20 dB -12.93 dB 3:14 09-Contra
DR8 -0.20 dB -9.55 dB 3:27 10-G-Moll
DR9 -0.20 dB -11.09 dB 2:44 11-Karibik
DR9 -0.21 dB -11.90 dB 3:16 12-Mondlicht
––––––––––––––––––––––––––––––––––––––––

Number of tracks: 12
Official DR value: DR9

Samplerate: 44100 Hz
Channels: 2
Bits per sample: 24
Bitrate: 1401 kbps
Codec: FLAC
================================================================================



Thanks to the Original customer.