Tags
Language
Tags

Obsidian Kingdom - Meat Machine (2020) [Official Digital Download 24/96]

Posted By:
Obsidian Kingdom - Meat Machine (2020) [Official Digital Download 24/96]

Obsidian Kingdom - Meat Machine (2020)
FLAC (tracks) 24-bit/96 kHz | Front Cover | Time - 47:43 minutes | 987 MB
Post-Metal, Progressive Metal | Label: Season of Mist, Official Digital Download

OBSIDIAN KINGDOM is devoted to exploring the boundaries of Rock music. The Barcelonan band defies classification to this very day, drawing equally on progressive rock, post-metal, alternative and electronic music. However hard to pigeonhole, it remains consistent with delivering exciting content that never fails to surprise the audience.

‘Meat Machine’ is a frantic attempt at self-discovery, through a head-first plunge into the anxiety derived from sexual frustration, the absurd of reality and the inherent cruelty of a mechanized world. It is an emotional roller-coaster featuring an abrasive and overwhelming sound that draws equally from noise and art rock, post metal and late 90s alternative music.

Tracklist:
1. THE EDGE (03:56)
2. THE PUMP (04:24)
3. MR PAN (05:38)
4. NAKED POLITICS (04:05)
5. FLESH WORLD (06:15)
6. MEAT STAR (04:41)
7. SPANKER (04:18)
8. VOGUE (03:42)
9. WOMB OF WIRE (05:17)
10. A FOE (05:26)

foobar2000 1.5.4 / Dynamic Range Meter 1.1.1
log date: 2020-09-25 13:04:35

––––––––––––––––––––––––––––––––––––––––
Analyzed: Obsidian Kingdom / MEAT MACHINE
––––––––––––––––––––––––––––––––––––––––

DR Peak RMS Duration Track
––––––––––––––––––––––––––––––––––––––––
DR6 -0.68 dB -8.70 dB 3:56 01-THE EDGE
DR6 -0.68 dB -8.32 dB 4:24 02-THE PUMP
DR7 -0.69 dB -9.05 dB 5:38 03-MR PAN
DR7 -0.68 dB -9.59 dB 4:05 04-NAKED POLITICS
DR7 -0.68 dB -10.19 dB 6:15 05-FLESH WORLD
DR6 -0.68 dB -8.48 dB 4:41 06-MEAT STAR
DR7 -0.68 dB -9.07 dB 4:18 07-SPANKER
DR7 -0.68 dB -9.44 dB 3:42 08-VOGUE
DR7 -0.68 dB -9.82 dB 5:17 09-WOMB OF WIRE
DR8 -0.70 dB -10.83 dB 5:26 10-A FOE
––––––––––––––––––––––––––––––––––––––––

Number of tracks: 10
Official DR value: DR7

Samplerate: 96000 Hz
Channels: 2
Bits per sample: 24
Bitrate: 2482 kbps
Codec: FLAC
================================================================================


Thanks to the Original customer!