Tags
Language
Tags
February 2023
Su Mo Tu We Th Fr Sa
29 30 31 1 2 3 4
5 6 7 8 9 10 11
12 13 14 15 16 17 18
19 20 21 22 23 24 25
26 27 28 1 2 3 4

Other Lands - Archipelagos (2022) [Official Digital Download 24/88]

Posted By: delpotro
Other Lands - Archipelagos (2022) [Official Digital Download 24/88]

Other Lands - Archipelagos (2022)
FLAC (tracks) 24-bit/88,2 kHz | Front Cover | Time - 43:17 minutes | 831 MB
Electronic, Future Jazz, Ambient | Label: Athens Of The North, Official Digital Download

AOTN proudly present a new solo outing from long time friend & contributor to Athens of the North, Other Lands aka Gavin L.Sutherland.

Channelling his considerable improvisational skills to evoke notions of island life, his concept was to create something that could work equally well in the wilds of the Western Isles as in the sunnier spots of the world that we all yearned to escape to at that time. The more he played with this idea of groups of islands, of archipelagos the world over, the more it also became about people themselves experiencing isolation as individuals, while still feeling a sense of togetherness with others in the same boat.

Working a little at home but mainly here at Athens of the North studios, he would come in each day over the course of a few weeks and just hit record, playing at times almost without mind. Sometimes the mood would call for keys, strings, or drums through delays for days and days. Often, the music would happen by chance as much as by design. One rule he tried to adhere to was to not overthink things, capturing moments honestly with minimal editing or digital processing.

What we’ve ended up with is a beautiful, spontaneous, timeless and honest meditation on what it is to be at once both alone and part of a larger whole.

Tracklist:
1. Braidbit (05:19)
2. SoLong SoFar (06:13)
3. Ambergris (02:17)
4. Zeniba (05:42)
5. Cave Code (03:10)
6. Selkie Road (03:43)
7. Open Sea (04:11)
8. HomeWords (05:36)
9. Landmasses (03:41)
10. Circles (03:25)

foobar2000 1.4.1 / Dynamic Range Meter 1.1.1
log date: 2022-10-03 13:12:03

––––––––––––––––––––––––––––––––––––––––
Analyzed: Other Lands / Archipelagos
––––––––––––––––––––––––––––––––––––––––

DR Peak RMS Duration Track
––––––––––––––––––––––––––––––––––––––––
DR6 -0.50 dB -7.63 dB 5:19 01-Braidbit
DR7 -0.50 dB -9.97 dB 6:13 02-SoLong SoFar
DR7 -0.50 dB -10.51 dB 2:17 03-Ambergris
DR5 -0.50 dB -7.25 dB 5:42 04-Zeniba
DR7 -0.50 dB -8.21 dB 3:10 05-Cave Code
DR7 -0.50 dB -8.51 dB 3:43 06-Selkie Road
DR7 -0.50 dB -8.94 dB 4:11 07-Open Sea
DR7 -0.50 dB -8.67 dB 5:36 08-HomeWords
DR6 -0.50 dB -8.40 dB 3:41 09-Landmasses
DR6 -0.50 dB -8.36 dB 3:25 10-Circles
––––––––––––––––––––––––––––––––––––––––

Number of tracks: 10
Official DR value: DR7

Samplerate: 88200 Hz
Channels: 2
Bits per sample: 24
Bitrate: 2655 kbps
Codec: FLAC
================================================================================


Thanks to the Original customer!