Tags
Language
Tags

Pentatonix - Evergreen (2021) [Official Digital Download]

Posted By: delpotro
Pentatonix - Evergreen (2021) [Official Digital Download]

Pentatonix - Evergreen (2021)
FLAC (tracks) 24-bit/44,1 kHz | Front Cover | Time - 39:35 minutes | 443 MB
Pop, Xmas | Label: RCA Records, Official Digital Download

If it's the fall, there must be a new Pentatonix Christmas album around the corner. The Grammy-winning a cappella group will release their sixth holiday project, Evergreen, on October 29.

Tracklist:
1. It's Been A Long, Long Time (01:07)
2. Wonderful Christmastime (02:31)
3. I Saw Three Ships (03:15)
4. Home For The Holidays (02:36)
5. River (02:17)
6. Over The River (feat. Lindsey Stirling) (02:39)
7. The Prayer (04:21)
8. Evergreen (03:01)
9. Frosty The Snowman (feat. Alessia Cara) (02:17)
10. I Just Called To Say I Love You (03:26)
11. Little Saint Nick (02:02)
12. It Came Upon The Midnight Clear (03:09)
13. My Heart With You (04:33)
14. We Wish You A Merry Christmas (02:16)

foobar2000 1.4.1 / Dynamic Range Meter 1.1.1
log date: 2021-11-15 10:33:53

––––––––––––––––––––––––––––––––––––––––
Analyzed: Pentatonix / Evergreen
––––––––––––––––––––––––––––––––––––––––

DR Peak RMS Duration Track
––––––––––––––––––––––––––––––––––––––––
DR9 -0.44 dB -13.43 dB 1:08 01-It's Been A Long, Long Time
DR7 0.00 dB -8.79 dB 2:32 02-Wonderful Christmastime
DR9 0.00 dB -11.17 dB 3:15 03-I Saw Three Ships
DR7 0.00 dB -8.95 dB 2:36 04-Home For The Holidays
DR10 -0.01 dB -12.83 dB 2:17 05-River
DR8 0.00 dB -9.65 dB 2:40 06-Over The River
DR6 0.00 dB -8.15 dB 4:21 07-The Prayer
DR8 0.00 dB -9.32 dB 3:01 08-Evergreen
DR7 0.00 dB -7.99 dB 2:17 09-Frosty The Snowman
DR8 0.00 dB -10.59 dB 3:27 10-I Just Called To Say I Love You
DR9 0.00 dB -10.23 dB 2:03 11-Little Saint Nick
DR7 0.00 dB -8.59 dB 3:10 12-It Came Upon The Midnight Clear
DR8 0.00 dB -11.91 dB 4:33 13-My Heart With You
DR9 0.00 dB -11.27 dB 2:16 14-We Wish You A Merry Christmas
––––––––––––––––––––––––––––––––––––––––

Number of tracks: 14
Official DR value: DR8

Samplerate: 44100 Hz
Channels: 2
Bits per sample: 24
Bitrate: 1502 kbps
Codec: FLAC
================================================================================


Thanks to the Original customer!