Tags
Language
Tags

Pharaoh - The Powers That Be (2021) [Official Digital Download]

Posted By: delpotro
Pharaoh - The Powers That Be (2021) [Official Digital Download]

Pharaoh - The Powers That Be (2021)
FLAC (tracks) 24-bit/44,1 kHz | Front Cover | Time - 44:32 minutes | 543 MB
Power Metal | Label: Cruz Del Sur Music, Official Digital Download

Long-running American metallers Pharaoh emerge with The Powers That Be, a nine-song offering of challenging melodic metal featuring a guest solo from Voivod's Daniel Chewy Mongrain!

Tracklist:
1. The Powers That Be (06:00)
2. Will We Rise (04:21)
3. Waiting to Drown (02:41)
4. Lost in the Waves (05:29)
5. Ride Us to Hell (04:24)
6. When the World Was Mine (05:01)
7. Freedom (05:06)
8. Dying Sun (06:48)
9. I Can Hear Them (04:42)

foobar2000 1.4.1 / Dynamic Range Meter 1.1.1
log date: 2021-06-21 12:08:19

––––––––––––––––––––––––––––––––––––––––
Analyzed: Pharaoh / The Powers That Be
––––––––––––––––––––––––––––––––––––––––

DR Peak RMS Duration Track
––––––––––––––––––––––––––––––––––––––––
DR6 -0.31 dB -7.94 dB 6:00 01-The Powers That Be
DR7 -0.31 dB -7.86 dB 4:21 02-Will We Rise
DR10 -0.31 dB -12.80 dB 2:41 03-Waiting to Drown
DR7 -0.31 dB -8.42 dB 5:29 04-Lost in the Waves
DR6 -0.31 dB -7.60 dB 4:24 05-Ride Us to Hell
DR7 -0.31 dB -8.87 dB 5:01 06-When the World Was Mine
DR7 -0.31 dB -7.80 dB 5:06 07-Freedom
DR6 -0.31 dB -8.18 dB 6:48 08-Dying Sun
DR6 -0.31 dB -7.75 dB 4:42 09-I Can Hear Them
––––––––––––––––––––––––––––––––––––––––

Number of tracks: 9
Official DR value: DR7

Samplerate: 44100 Hz
Channels: 2
Bits per sample: 24
Bitrate: 1716 kbps
Codec: FLAC
================================================================================


Thanks to the Original customer!