Piers Lane, The Orchestra Now & Leon Botstein - Rubbra & Bliss: Piano Concertos (2020) [Official Digital Download 24/88]

Posted By: delpotro
Piers Lane, The Orchestra Now & Leon Botstein - Rubbra & Bliss: Piano Concertos (2020) [Official Digital Download 24/88]

Piers Lane, The Orchestra Now & Leon Botstein - Rubbra & Bliss: Piano Concertos (2020)
FLAC (tracks) 24-bit/88,2 kHz | Front Cover & Digital Booklet | Time - 77:27 minutes | 1,17 GB
Classical | Label: Hyperion Records, Official Digital Download

Two very different takes on the romantic piano concerto, both equally successful. The Bliss – written in 1939 for the World’s Fair in New York – is extrovert, exuberant and virtuosic, the Rubbra a profound reflection on, and continuation of, the English pastoral tradition.

Tracklist:
1. Piano Concerto in G, Op. 85: I. Corymbus. Adagio, calmo e quasi improvisatore (10:35)
2. Piano Concerto in G, Op. 85: II. Dialogue. Lento e solenne (10:18)
3. Piano Concerto in G, Op. 85: III. Danza alla rondo. Allegretto gioioso (09:00)
4. Morning Song, "Maytime in Sussex" (07:38)
5. Piano Concerto in B-Flat Major: I. Allegro con brio (16:51)
6. Piano Concerto in B-Flat Major: II. Adagietto (11:25)
7. Piano Concerto in B-Flat Major: III. Andante maestoso – Molto vivo (11:37)

foobar2000 1.4.1 / Dynamic Range Meter 1.1.1
log date: 2020-07-12 18:02:33

––––––––––––––––––––––––––––––––––––––––
Analyzed: Piers Lane; Leon Botstein: The Orchestra Now / Rubbra & Bliss: Piano Concertos
––––––––––––––––––––––––––––––––––––––––

DR Peak RMS Duration Track
––––––––––––––––––––––––––––––––––––––––
DR13 -2.14 dB -20.72 dB 10:35 01-Rubbra: Piano Concerto in G, Op 85 - 1: Corymbus: Adagio, calmo e quasi improvisatore
DR14 -3.67 dB -24.56 dB 10:19 02-Rubbra: Piano Concerto in G, Op 85 - 2: Dialogue: Lento e solenne
DR13 -1.12 dB -21.07 dB 9:01 03-Rubbra: Piano Concerto in G, Op 85 - 3: Danza alla rondo: Allegretto gioioso
DR15 -1.69 dB -22.55 dB 7:38 04-Bax: Morning Song 'Maytime in Sussex'
DR14 -0.84 dB -19.75 dB 16:51 05-Bliss: Piano Concerto in B flat major - 1: Allegro con brio
DR15 -3.09 dB -24.11 dB 11:25 06-Bliss: Piano Concerto in B flat major - 2: Adagietto
DR14 -0.96 dB -19.78 dB 11:38 07-Bliss: Piano Concerto in B flat major - 3: Andante maestoso – Molto vivo
––––––––––––––––––––––––––––––––––––––––

Number of tracks: 7
Official DR value: DR14

Samplerate: 88200 Hz
Channels: 2
Bits per sample: 24
Bitrate: 2189 kbps
Codec: FLAC
================================================================================


Thanks to the Original customer!