Tags
Language
Tags

Pink Floyd - The Dark Side Of The Moon (2011 Remastered Version) (2016) [Official Digital Download 24/96-192]

Posted By: El Misha
Pink Floyd - The Dark Side Of The Moon (2011 Remastered Version) (2016) [Official Digital Download 24/96-192]

Pink Floyd - The Dark Side Of The Moon (2011 Remastered Version) (2016)
FLAC (tracks) 24-bit/96.0-192.0 kHz | Time - 42:44 | 1.10 GB
Studio Master, Official Digital Download | Artwork: Front cover

By condensing the sonic explorations of Meddle to actual songs and adding a lush, immaculate production to their trippiest instrumental sections, Pink Floyd inadvertently designed their commercial breakthrough with Dark Side of the Moon. The primary revelation of Dark Side of the Moon is what a little focus does for the band. Roger Waters wrote a series of songs about mundane, everyday details which aren't that impressive by themselves, but when given the sonic backdrop of Floyd's slow, atmospheric soundscapes and carefully placed sound effects, they achieve an emotional resonance. But what gives the album true power is the subtly textured music, which evolves from ponderous, neo-psychedelic art rock to jazz fusion and blues-rock before turning back to psychedelia. It's dense with detail, but leisurely paced, creating its own dark, haunting world. Pink Floyd may have better albums than Dark Side of the Moon, but no other record defines them quite as well as this one.
© Stephen Thomas Erlewine /TiVo



Tracklist:

01. Pink Floyd - Speak to Me (01:04)
02. Pink Floyd - Breathe (In the Air) (02:49)
03. Pink Floyd - On the Run (03:36)
04. Pink Floyd - Time (07:02)
05. Pink Floyd - The Great Gig in the Sky (04:44)
06. Pink Floyd - Money (06:20)
07. Pink Floyd - Us and Them (07:52)
08. Pink Floyd - Any Colour You Like (03:25)
09. Pink Floyd - Brain Damage (03:50)
10. Pink Floyd - Eclipse (02:06)

foobar2000 1.4 / Dynamic Range Meter 1.1.1
log date: 2022-03-21 05:20:01

––––––––––––––––––––––––––––––––––––––––
Analyzed: Pink Floyd / The Dark Side Of The Moon
––––––––––––––––––––––––––––––––––––––––

DR Peak RMS Duration Track
––––––––––––––––––––––––––––––––––––––––
DR9 -9.51 dB -22.56 dB 1:04 01-Speak To Me (2011 Remastered Version)
DR11 -2.28 dB -15.82 dB 2:50 02-Breathe (In The Air) (2011 Remastered Version)
DR10 -1.59 dB -17.25 dB 3:36 03-On The Run (2011 Remastered Version)
DR10 -1.93 dB -14.87 dB 7:03 04-Time (2011 Remastered Version)
DR9 -2.50 dB -16.56 dB 7:53 07-Us And Them (2011 Remastered Version)
DR11 -0.59 dB -14.43 dB 3:26 08-Any Colour You Like (2011 Remastered Version)
––––––––––––––––––––––––––––––––––––––––

Number of tracks: 6
Official DR value: DR10

Samplerate: 96000 Hz
Channels: 2
Bits per sample: 24
Bitrate: 2815 kbps
Codec: FLAC
================================================================================

––––––––––––––––––––––––––––––––––––––––
Analyzed: Pink Floyd / The Dark Side Of The Moon
––––––––––––––––––––––––––––––––––––––––

DR Peak RMS Duration Track
––––––––––––––––––––––––––––––––––––––––
DR9 -4.24 dB -18.97 dB 4:44 05-The Great Gig In The Sky (2011 Remastered Version)
DR11 -3.83 dB -18.08 dB 6:34 06-Money (2011 Remastered Version)
DR11 -3.86 dB -18.98 dB 3:46 09-Brain Damage (2011 Remastered Version)
DR8 -3.05 dB -14.90 dB 1:54 10-Eclipse (2011 Remastered Version)
––––––––––––––––––––––––––––––––––––––––

Number of tracks: 4
Official DR value: DR10

Samplerate: 192000 Hz
Channels: 2
Bits per sample: 24
Bitrate: 5009 kbps
Codec: FLAC
================================================================================



Thanks to the Original customer!