Pop Evil - Versatile (2021) [Official Digital Download 24/48]

Posted By: delpotro
Pop Evil - Versatile (2021) [Official Digital Download 24/48]

Pop Evil - Versatile (2021)
FLAC (tracks) 24-bit/48 kHz | Front Cover | Time - 41:30 minutes | 547 MB
Alternative Metal, Hard Rock | Label: eOne Music, Official Digital Download

Titled Versatile, the upcoming album from the American hard rock/metal band is their sixth full-length album and is scheduled to be released in May this year, via eOne Heavy.

“We are very excited to announce our sixth studio album is being released May 21st,” announces the band in a joint statement. “Versatile is available for pre-order now! With this launch we are releasing a brand-new track from the album, Set Me Free, which embodies the challenging times the world has faced this past year. We are very proud & humbled to see our current single Breathe Again trending Top 5 on the Rock Radio charts, and the video being embraced by our fans. We can’t wait for you all to hear the rest of the album, as we feel it’s our strongest to date.”

Tracklist:
1. Let the Chaos Reign (03:18)
2. Set Me Free (03:29)
3. Breathe Again (03:11)
4. Work (03:54)
5. Inferno (03:52)
6. Stronger (The Time Is Now) (03:29)
7. Raise Your Flag (02:44)
8. Human Nature (03:37)
9. Survivor (04:02)
10. Worst in Me (03:22)
11. Same Blood (03:21)
12. Fire Inside (03:06)

foobar2000 1.4.1 / Dynamic Range Meter 1.1.1
log date: 2021-05-20 18:04:26

––––––––––––––––––––––––––––––––––––––––
Analyzed: Pop Evil / Versatile
––––––––––––––––––––––––––––––––––––––––

DR Peak RMS Duration Track
––––––––––––––––––––––––––––––––––––––––
DR4 -0.31 dB -5.32 dB 3:19 01-Let The Chaos Reign
DR4 -0.26 dB -6.00 dB 3:30 02-Set Me Free
DR5 -0.22 dB -6.21 dB 3:11 03-Breathe Again
DR4 -0.30 dB -7.13 dB 3:55 04-Work
DR5 -0.34 dB -8.25 dB 3:52 05-Inferno
DR5 -0.22 dB -6.73 dB 3:29 06-Stronger (The Time Is Now)
DR5 -0.10 dB -7.04 dB 2:45 07-Raise Your Flag
DR5 -0.30 dB -8.08 dB 3:37 08-Human Nature
DR5 0.00 dB -7.79 dB 4:02 09-Survivor
DR4 -0.35 dB -6.59 dB 3:22 10-Worst In Me
DR5 -0.02 dB -6.50 dB 3:22 11-Same Blood
DR4 -0.23 dB -6.49 dB 3:06 12-Fire Inside
––––––––––––––––––––––––––––––––––––––––

Number of tracks: 12
Official DR value: DR5

Samplerate: 48000 Hz
Channels: 2
Bits per sample: 24
Bitrate: 1838 kbps
Codec: FLAC
================================================================================


Thanks to the Original customer!