Proud - Second Act (2021) [Official Digital Download]

Posted By: delpotro
Proud - Second Act (2021) [Official Digital Download]

Proud - Second Act (2021)
FLAC (tracks) 24-bit/44,1 kHz | Front Cover | Time - 44:49 minutes | 558 MB
Melodic Hard Rock, AOR | Label: AOR Heaven, Official Digital Download

Finally, PROUD is back after 36 years, stronger than ever, with ten new powerful songs!

PROUD were founded in Landskrona, Sweden in 1982. They started as BURN and were one of many, countless Hard Rock bands that came in the mid-80s. The group changed their name over to PROUD and made an album for EMI which was produced by Caj Högberg (“Fire Breaks the Dawn”). This album is a rare and often elusive title making it an essential purchase when stumbling upon by fans of classic rock/metal of the 1980s. “Fire Breaks the Dawn” achieved success in Japan and parts of South America both.

In 2019, two of the original band members decided to make a new start! Songwriting and recording took place and soon a new record deal was signed with AOR Heaven.

“Second Act” was recorded and engineered by Richard Larsson at Handsome Hard Studio 1 and 2, produced by PROUD, mixed and mastered by Erik Mårtensson at Mass Destruction Production and additionally mixed by Thomas “Plec” Johansson at The Panic Room.

Tracklist:
01. Sail Away
02. Broken Dreams
03. Magic
04. Born for Your Love
05. Crying in the Night
06. Dangerous
07. Higher
08. Hold On
09. I'm Ready
10. Fly Like an Eagle

foobar2000 1.4.1 / Dynamic Range Meter 1.1.1
log date: 2021-05-27 19:00:27

––––––––––––––––––––––––––––––––––––––––
Analyzed: Proud / Second Act
––––––––––––––––––––––––––––––––––––––––

DR Peak RMS Duration Track
––––––––––––––––––––––––––––––––––––––––
DR8 -1.00 dB -10.62 dB 5:14 01-Sail Away
DR7 -1.00 dB -9.61 dB 4:35 02-Broken Dreams
DR9 -1.00 dB -10.69 dB 4:15 03-Magic
DR8 -1.00 dB -9.48 dB 3:58 04-Born for Your Love
DR9 -1.00 dB -10.44 dB 4:11 05-Crying in the Night
DR8 -1.00 dB -9.35 dB 4:12 06-Dangerous
DR8 -1.00 dB -9.75 dB 4:30 07-Higher
DR8 -1.00 dB -9.53 dB 4:35 08-Hold On
DR8 -1.00 dB -9.77 dB 4:43 09-I'm Ready
DR8 -1.00 dB -9.73 dB 4:36 10-Fly Like an Eagle
––––––––––––––––––––––––––––––––––––––––

Number of tracks: 10
Official DR value: DR8

Samplerate: 44100 Hz
Channels: 2
Bits per sample: 24
Bitrate: 1738 kbps
Codec: FLAC
================================================================================


Thanks to the Original customer!