Tags
Language
Tags

Punch Brothers - Hell on Church Street (2022) [Official Digital Download 24/96]

Posted By: delpotro
Punch Brothers - Hell on Church Street (2022) [Official Digital Download 24/96]

Punch Brothers - Hell on Church Street (2022)
FLAC (tracks) 24-bit/96 kHz | Front Cover | Time - 43:25 minutes | 878 MB
Country, Folk, Bluegrass | Label: Nonesuch Records, Official Digital Download

Hell on Church Street, Punch Brothers’ newest album, is the band’s reimagining of, and homage to, the late bluegrass great Tony Rice’s landmark solo album Church Street Blues. The record features a collection of songs by Bob Dylan, Gordon Lightfoot, Bill Monroe, and others. Recorded at Nashville’s Blackbird Studio in November 2020, during a time of great uncertainty, Hell on Church Street was intended as both its own work of art and a gift to Rice, who died that Christmas. Punch Brothers said of Tony Rice and Church Street Blues: “No record (or musician) has had a greater impact on us, and we felt compelled to cover it in its entirety, with the objective of interacting with it in the same spirit of respect-fueled adventure that Tony brought to each of its pre-existing songs.”

Tracklist:
1. Church Street Blues (02:33)
2. Cattle in the Cane (03:32)
3. Streets of London (04:22)
4. One More Night (01:49)
5. The Gold Rush (02:46)
6. Any Old Time (02:58)
7. Orphan Annie (05:00)
8. House Carpenter / Jerusalem Ridge (07:17)
9. Last Thing on My Mind (04:25)
10. Pride of Man (03:53)
11. Wreck of the Edmund Fitzgerald (04:45)

foobar2000 1.4.1 / Dynamic Range Meter 1.1.1
log date: 2022-01-15 14:09:29

––––––––––––––––––––––––––––––––––––––––
Analyzed: Punch Brothers / Hell on Church Street
––––––––––––––––––––––––––––––––––––––––

DR Peak RMS Duration Track
––––––––––––––––––––––––––––––––––––––––
DR8 -0.10 dB -10.99 dB 2:33 01-Church Street Blues
DR7 -0.10 dB -10.00 dB 3:32 02-Cattle in the Cane
DR9 -0.10 dB -13.99 dB 4:22 03-Streets of London
DR9 -0.10 dB -9.90 dB 1:49 04-One More Night
DR12 -0.10 dB -16.35 dB 2:46 05-The Gold Rush
DR7 -0.10 dB -8.74 dB 2:59 06-Any Old Time
DR11 -0.10 dB -13.50 dB 5:01 07-Orphan Annie
DR10 -0.10 dB -12.73 dB 7:18 08-House Carpenter / Jerusalem Ridge
DR11 -2.77 dB -18.28 dB 4:25 09-Last Thing on My Mind
DR7 -0.10 dB -11.11 dB 3:53 10-Pride of Man
DR8 -0.10 dB -13.22 dB 4:46 11-Wreck of the Edmund Fitzgerald
––––––––––––––––––––––––––––––––––––––––

Number of tracks: 11
Official DR value: DR9

Samplerate: 96000 Hz
Channels: 2
Bits per sample: 24
Bitrate: 2799 kbps
Codec: FLAC
================================================================================


Thanks to the Original customer!