Quartetto Italiano - Schumann: String Quartet, Op. 41 No. 3 - Mozart: String Quartet No. 3, K. 156 (2021) [Digital Dnld 24/192]

Posted By: delpotro
Quartetto Italiano - Schumann: String Quartet, Op. 41 No. 3 - Mozart: String Quartet No. 3, K. 156 (2021) [Digital Dnld 24/192]

Quartetto Italiano - Schumann: String Quartet, Op. 41 No. 3 - Mozart: String Quartet No. 3, K. 156 (2021)
FLAC (tracks) 24-bit/192 kHz | Front Cover | Time - 48:20 minutes | 1,77 GB
Classical | Label: Warner Classics, Official Digital Download

Historical recordings: The ensemble's confidently-chosen name made it clear from the outset that the Quartetto Italiano saw itself not simply as an Italian string quartet among many, but as the authoritative one. The ensemble was soon recognized as a pioneer of Italian chamber music culture following the Second World War. Through their tireless obsession with detail, in-depth exploration of the works' musical expression, and the remarkable homogeneity of their quartet sound, the Quartetto Italiano conquered a firm place in the top league of leading string quartets over the first two decades of their career.

Tracklist:
1. Schumann: String Quartet No. 3 in A Major, Op. 41 No. 3: I. Andante espressivo – Allegro molto moderato (08:29)
2. Schumann: String Quartet No. 3 in A Major, Op. 41 No. 3: II. Assai agitato (08:10)
3. Schumann: String Quartet No. 3 in A Major, Op. 41 No. 3: III. Adagio molto (08:45)
4. Schumann: String Quartet No. 3 in A Major, Op. 41 No. 3: IV. Allegro molto vivace (07:46)
5. Mozart: String Quartet No. 3 in G Major, K. 156: I. Presto (03:22)
6. Mozart: String Quartet No. 3 in G Major, K. 156: II. Adagio (07:20)
7. Mozart: String Quartet No. 3 in G Major, K. 156: III. Tempo di Menuetto (04:25)

foobar2000 1.4.1 / Dynamic Range Meter 1.1.1
log date: 2021-06-18 11:52:52

––––––––––––––––––––––––––––––––––––––––
Analyzed: Quartetto Italiano / Schumann: String Quartet, Op. 41 No. 3 - Mozart: String Quartet No. 3, K. 156
––––––––––––––––––––––––––––––––––––––––

DR Peak RMS Duration Track
––––––––––––––––––––––––––––––––––––––––
DR14 -1.02 dB -20.29 dB 8:30 01-Schumann: String Quartet No. 3 in A Major, Op. 41 No. 3: I. Andante espressivo – Allegro molto moderato
DR13 -1.76 dB -20.33 dB 8:11 02-Schumann: String Quartet No. 3 in A Major, Op. 41 No. 3: II. Assai agitato
DR13 -2.32 dB -21.25 dB 8:45 03-Schumann: String Quartet No. 3 in A Major, Op. 41 No. 3: III. Adagio molto
DR13 -0.39 dB -18.75 dB 7:46 04-Schumann: String Quartet No. 3 in A Major, Op. 41 No. 3: IV. Allegro molto vivace
DR14 -3.69 dB -21.85 dB 3:22 05-Mozart: String Quartet No. 3 in G Major, K. 156: I. Presto
DR13 -2.75 dB -21.18 dB 7:20 06-Mozart: String Quartet No. 3 in G Major, K. 156: II. Adagio
DR12 -2.94 dB -20.57 dB 4:25 07-Mozart: String Quartet No. 3 in G Major, K. 156: III. Tempo di Menuetto
––––––––––––––––––––––––––––––––––––––––

Number of tracks: 7
Official DR value: DR13

Samplerate: 192000 Hz
Channels: 2
Bits per sample: 24
Bitrate: 5196 kbps
Codec: FLAC
================================================================================


Thanks to the Original customer!