Ramin Djawadi - Westworld: Season 3 (Music From The HBO Series) (2020) [Official Digital Download]

Posted By: delpotro
Ramin Djawadi - Westworld: Season 3 (Music From The HBO Series) (2020) [Official Digital Download]

Ramin Djawadi - Westworld: Season 3 (Music From The HBO Series) (2020)
FLAC (tracks) 24-bit/44,1 kHz | Front Cover | Time - 94:35 minutes | 907 MB
Soundtrack | Label: Warner Bros. Records, Official Digital Download

In Westworld, music isn’t just atmospheric; it’s thematic. It both builds the fictional world and communicates something about that world to a viewer. Composer Ramin Djawadi (Game of Thrones) accomplishes the first feat easily enough with the opening ear warm (can you hear it already? Do-do-do-dodododo, do-do-dooo. So catchy). But Djawadi is also able to achieve something more interesting.

The use of cover music, for instance, communicates something of the series’ other-worldliness—something familiar and yet not. In season 1, the Rolling Stones’ “Paint it Black” orchestral cover overlaid rock and roll with western gun fights and saloon robberies. The music suited neither the American Western era nor the future world in which the series takes place. Again, familiar but also not. It’s a kind of displacement appropriate for a show that constantly bends and twists its own medium, pulling the rug out from under the reader with alternating timelines and slight-of-hand editing—it’s also a movie that feels familiar (the western), but is not (the sci-fi).

Then there’s music’s image—the orchestra, the conductor, the visual order of sound. Throughout every season, the one consistent image in the opening credits remains the fingers playing the saloon’s piano. The fingers then lift off the keys, the keys play on regardless. Robert Ford—Westworld’s conductor—often plays the piano both in the park and the digital representation of the park's data. The image is one of orchestration and the illusion of agency; the hosts, programmed to run on “loops,” play what they are programmed to play. They are the keys that sound even when Ford isn’t operating them.

Tracklist:
1. Main Title Theme - Westworld (01:41)
2. Start a Revolution (02:36)
3. Caleb (04:38)
4. Rehoboam (02:39)
5. Dissolved Girl (03:27)
6. MOTO (02:40)
7. Unsubscribe (03:15)
8. You Are Not Even You (02:04)
9. I Don't Do Personals (03:09)
10. Sweet Child O' Mine (01:25)
11. Serac (03:17)
12. The Winter Line (04:14)
13. It's Our Choice (02:41)
14. Doomed (04:01)
15. Decoherence (02:54)
16. Hunter (03:40)
17. Why Are We Here? (02:39)
18. Wicked Games (05:31)
19. Hope (04:42)
20. Who's to Blame (02:58)
21. Activate (03:47)
22. Space Oddity (03:49)
23. The Choice Is Yours (03:29)
24. Main Title from The Shining (02:01)
25. Brain Damage (03:55)
26. Divergence (04:05)
27. Choose the Beauty (03:29)
28. Welcome to the End (02:01)
29. Free Will (03:34)

foobar2000 1.4.1 / Dynamic Range Meter 1.1.1
log date: 2020-06-30 22:20:26

––––––––––––––––––––––––––––––––––––––––
Analyzed: Ramin Djawadi / Westworld: Season 3 (Music From The HBO Series)
––––––––––––––––––––––––––––––––––––––––

DR Peak RMS Duration Track
––––––––––––––––––––––––––––––––––––––––
DR6 -0.13 dB -10.00 dB 1:41 01-Main Title Theme - Westworld
DR8 -0.20 dB -11.76 dB 2:36 02-Start a Revolution
DR10 -0.20 dB -13.91 dB 4:38 03-Caleb
DR9 -1.37 dB -14.66 dB 2:40 04-Rehoboam
DR9 -0.20 dB -13.46 dB 3:28 05-Dissolved Girl
DR8 -0.20 dB -10.85 dB 2:40 06-MOTO
DR10 -4.02 dB -19.49 dB 3:15 07-Unsubscribe
DR10 -3.05 dB -16.43 dB 2:05 08-You Are Not Even You
DR8 -0.20 dB -11.03 dB 3:10 09-I Don't Do Personals
DR8 -0.20 dB -14.12 dB 1:26 10-Sweet Child O' Mine
DR13 -0.20 dB -17.90 dB 3:18 11-Serac
DR8 -0.20 dB -13.07 dB 4:15 12-The Winter Line
DR11 -3.71 dB -21.94 dB 2:41 13-It's Our Choice
DR10 -5.25 dB -20.63 dB 4:01 14-Doomed
DR11 -0.20 dB -15.15 dB 2:54 15-Decoherence
DR13 -0.50 dB -18.78 dB 3:41 16-Hunter
DR11 -0.20 dB -15.42 dB 2:39 17-Why Are We Here?
DR9 -0.10 dB -14.20 dB 5:32 18-Wicked Games
DR10 -0.20 dB -14.27 dB 4:43 19-Hope
DR11 -0.20 dB -15.87 dB 2:59 20-Who's to Blame
DR7 -0.10 dB -10.81 dB 3:47 21-Activate
DR12 -2.40 dB -17.58 dB 3:49 22-Space Oddity
DR6 -0.20 dB -10.24 dB 3:29 23-The Choice Is Yours
DR9 -7.84 dB -18.99 dB 2:01 24-Main Title from The Shining
DR11 -0.10 dB -15.17 dB 3:55 25-Brain Damage
DR6 -0.10 dB -9.16 dB 4:06 26-Divergence
DR8 -0.10 dB -12.01 dB 3:30 27-Choose the Beauty
DR7 -0.10 dB -12.28 dB 2:02 28-Welcome to the End
DR8 -0.10 dB -13.54 dB 3:34 29-Free Will
––––––––––––––––––––––––––––––––––––––––

Number of tracks: 29
Official DR value: DR9

Samplerate: 44100 Hz
Channels: 2
Bits per sample: 24
Bitrate: 1250 kbps
Codec: FLAC
================================================================================


Thanks to the Original customer!