Tags
Language
Tags

Reagenz - rEAGENZ (Remastered) (1994/2021) [Official Digital Download]

Posted By: delpotro
Reagenz - rEAGENZ (Remastered) (1994/2021) [Official Digital Download]

Reagenz - rEAGENZ (Remastered) (1994/2021)
FLAC (tracks) 24-bit/44,1 kHz | Front Cover | Time - 75:49 minutes | 854 MB
Electronic, IDM, Techno, Ambient | Label: Musique Pour La Danse, Official Digital Download

Musique Pour La Danse is proud to present rEAGENZ, the iconic self-titled debut album from Jonah Sharp (Spacetime Continuum) & David Moufang (Move D) from 1994. An underrated milestone of 90’s electronic music where lush ambient textures meet intricate IDM/techno rhythms.

Tracklist:
1. Ä (2021 Remaster) (10:25)
2. Ö (2021 Remaster) (06:48)
3. Ü (2021 Remaster) (10:54)
4. ß (2021 Remaster) (12:33)
5. Long Leaves (2021 Remaster) (08:14)
6. Hollow Mountain (2021 Remaster) (14:50)
7. DJ Friendly (2021 Remaster) (09:32)
8. Tz (02:29)

foobar2000 1.4.1 / Dynamic Range Meter 1.1.1
log date: 2021-07-18 11:56:58

––––––––––––––––––––––––––––––––––––––––
Analyzed: Reagenz / rEAGENZ (2021 Remaster)
––––––––––––––––––––––––––––––––––––––––

DR Peak RMS Duration Track
––––––––––––––––––––––––––––––––––––––––
DR12 -0.50 dB -14.95 dB 10:25 01-Ä (2021 Remaster)
DR11 -1.41 dB -15.28 dB 6:49 02-Ö (2021 Remaster)
DR12 -0.50 dB -14.83 dB 10:54 03-Ü (2021 Remaster)
DR11 -0.50 dB -12.43 dB 12:33 04-ß (2021 Remaster)
DR10 -0.50 dB -12.84 dB 8:15 05-Long Leaves (2021 Remaster)
DR9 -0.50 dB -12.93 dB 14:51 06-Hollow Mountain (2021 Remaster)
DR8 -0.50 dB -9.99 dB 9:33 07-DJ Friendly (2021 Remaster)
DR10 -0.60 dB -12.78 dB 2:30 08-Tz (2021 Remaster)
––––––––––––––––––––––––––––––––––––––––

Number of tracks: 8
Official DR value: DR10

Samplerate: 44100 Hz
Channels: 2
Bits per sample: 24
Bitrate: 1468 kbps
Codec: FLAC
================================================================================


Thanks to the Original customer!